BitTorrentTracker PerecTracker.org
BitTorrentTracker PerecTracker.org
    
Регистрация  ·  Вход
 
 · 
Забыли пароль?

  • Личные счеты (Александр Карпов) [1982 г., драма, SATRip]

    Ответить на тему
     
    Автор Сообщение

    Light

    Создавать темы 16-Июн-2015 16:06

           

    [Цитировать]

    Личные счетыГод выпуска: 1982.
    Жанр: драма.
    Продолжительность: 01:18:45.
    Режиссер: Александр Карпов (младший).
    В ролях:
    Вадим Спиридонов, Татьяна Ташкова, Виктор Тарасов, Валентина Титова, Владимир Эренберг, Борис Руднев, Татьяна Мархель, Александр Серский, Пётр Юрченков (ст.), Виктор Кремлёв, Иван Мацкевич, Александр Борисов, Владимир Кулешов, Виталий Быков.
    Описание:
    У молодого талантливого ученого Константина Попова завязывается серьезный роман с дочерью его научного руководителя. Вскоре по кафедре начинают ползти слухи, что Попов сделал правильный выбор: расчет точный. Константин, человек принципиальный и бескомпромиссный, всего в жизни привык добиваться самостоятельно. Не в силах вынести насмешки сослуживцев, он разрывает отношения с любящей его женщиной...
    Доп. информация:
    Страна: СССР .
    Киностудия: Беларусьфильм.
    Премьера: ноябрь 1982 года.
    Автор сценария: Александр Борин.
    Оператор: Виталий Николаев.
    Композитор: Евгений Глебов.
    Художник: Вячеслав Кубарев.

    Рип с этой раздачи.
    Большое спасибо и Cheef mate за предоставленый материал для рипа!!!

    Качество: SATRip
    Формат: AVI
    Видео: 624x480 (1.30:1), 25 fps, XviD build 73 ~1194 kbps avg, 0.16 bit/pixel
    Аудио: 48 kHz, MPEG Layer 3, 2 ch, ~128.00 kbps avg

    Отчет MI

    General
    Complete name : Lichnye.schyoty.1982.XviD.SATRip_750.avi
    Format : AVI
    Format/Info : Audio Video Interleave
    File size : 751 MiB
    Duration : 1h 18mn
    Overall bit rate : 1 332 Kbps
    Writing application : VirtualDubMod 1.5.10.3 | www.virtualdub-fr.org || (build 2550/release)
    Writing library : VirtualDubMod build 2550/release
    Video
    ID : 0
    Format : MPEG-4 Visual
    Format profile : Advanced Simple@L5
    Format settings, BVOP : 1
    Format settings, QPel : No
    Format settings, GMC : No warppoints
    Format settings, Matrix : Custom
    Codec ID : XVID
    Codec ID/Hint : XviD
    Duration : 1h 18mn
    Bit rate : 1 195 Kbps
    Width : 624 pixels
    Height : 480 pixels
    Display aspect ratio : 4:3
    Frame rate : 25.000 fps
    Color space : YUV
    Chroma subsampling : 4:2:0
    Bit depth : 8 bits
    Scan type : Progressive
    Compression mode : Lossy
    Bits/(Pixel*Frame) : 0.160
    Stream size : 673 MiB (90%)
    Writing library : XviD 73
    Audio
    ID : 1
    Format : MPEG Audio
    Format version : Version 1
    Format profile : Layer 3
    Codec ID : 55
    Codec ID/Hint : MP3
    Duration : 1h 18mn
    Bit rate mode : Constant
    Bit rate : 128 Kbps
    Channel(s) : 2 channels
    Sampling rate : 48.0 KHz
    Compression mode : Lossy
    Stream size : 72.1 MiB (10%)
    Alignment : Aligned on interleaves
    Interleave, duration : 40 ms (1.00 video frame)
    Interleave, preload duratio : 504 ms
    Writing library : LAME3.99r
    Encoding settings : -m s -V 4 -q 2 -lowpass 17 -b 128
    Скриншоты

    Альтернативный хост

    Скачать .torrent

    Скачать торрент-файл бесплатно и на максимальной скорости!

    Как скачивать? · Что такое торрент? · Рейтинг и ограничения

    !ВНИМАНИЕ!
    Сайт не распространяет и не хранит электронные версии произведений, а занимается лишь лишь предоставлением доступа к создаваемому пользователями каталогу ссылок на торрент-файлы, которые содержат только списки хеш-сумм, убедительная просьба с жалобами обращаться напрямую к пользователю. Файлы для обмена на трекере предоставлены пользователями сайта, и администрация не несёт ответственности за их содержание. Просьба не заливать файлы, защищенные авторскими правами, а также файлы нелегального содержания!


    _________________
    [Профиль] [ЛС]
    Показать сообщения:    
    Ответить на тему

    Текущее время: Сегодня, в 05:20

    Часовой пояс: GMT + 2



    Вы не можете начинать темы
    Вы не можете отвечать на сообщения
    Вы не можете редактировать свои сообщения
    Вы не можете удалять свои сообщения
    Вы не можете голосовать в опросах
    Вы не можете прикреплять файлы к сообщениям
    Вы не можете скачивать файлы