Register  ·  Log in
Forgot password?

  • Фунт плоти / Pound Of Flesh (Эрни Барбараш / Ernie Barbarash) [2015, Канада, боевик, криминал, HDRip] DVO

    Reply to topic
    Author Message


    Post 16-Jun-2015 17:06



    Фунт плоти / Pound Of Flesh
    Страна: Канада
    Жанр: боевик, криминал
    Год выпуска: 2015
    Продолжительность: 01:44:24
    Перевод: Любительский (двухголосый закадровый) ColdFilm
    Cубтитры: нет
    Режиссер: Эрни Барбараш / Ernie Barbarash
    В ролях: Жан-Клод Ван Дамм, Даррен Шалави, Джон Ралстон, Джейсон Дж. Тобин, Кевин Ли, Шарлотта Питерс, Аки Алеонг, Темур Мамисашвили, Майк Лидер, Филипп Жоли
    Описание: Однажды ночью главный герой спасает женщину, но на следующее утро просыпается в номере отеля и обнаруживает, что лежит в ванной весь в крови и без одной почки…

    Качество видео: HDRip (исходник BDRip/1080p/hdreactor)
    Формат видео: AVI
    Видео: XviD MPEG-4, 624x352 (1.77:1), 23.976 fps, 888 kbps avg
    Аудио: MPEG Layer 3, 44.100 kHz, ~112.00 kbps avg, 2 ch


    Complete name : D:\Pound Of
    Format : AVI
    Format/Info : Audio Video Interleave
    File size : 754 MiB
    Duration : 1h 44mn
    Overall bit rate : 1 010 Kbps
    Writing application : VirtualDubMod (build 2540/release)
    Writing library : VirtualDubMod build 2540/release
    ID : 0
    Format : MPEG-4 Visual
    Format profile : Advanced Simple@L5
    Format settings, BVOP : 2
    Format settings, QPel : No
    Format settings, GMC : No warppoints
    Format settings, Matrix : Default (H.263)
    Muxing mode : Packed bitstream
    Codec ID : XVID
    Codec ID/Hint : XviD
    Duration : 1h 44mn
    Bit rate : 888 Kbps
    Width : 624 pixels
    Height : 352 pixels
    Display aspect ratio : 16:9
    Frame rate : 23.976 fps
    Color space : YUV
    Chroma subsampling : 4:2:0
    Bit depth : 8 bits
    Scan type : Progressive
    Compression mode : Lossy
    Bits/(Pixel*Frame) : 0.169
    Stream size : 663 MiB (88%)
    Writing library : XviD 73
    ID : 1
    Format : MPEG Audio
    Format version : Version 1
    Format profile : Layer 3
    Mode : Joint stereo
    Mode extension : MS Stereo
    Codec ID : 55
    Codec ID/Hint : MP3
    Duration : 1h 44mn
    Bit rate mode : Constant
    Bit rate : 112 Kbps
    Channel(s) : 2 channels
    Sampling rate : 44.1 KHz
    Compression mode : Lossy
    Stream size : 83.6 MiB (11%)
    Alignment : Split accross interleaves
    Interleave, duration : 42 ms (1.00 video frame)
    Interleave, preload duration : 500 ms
    Writing library : LAME3.99r
    Encoding settings : -m j -V 4 -q 3 -lowpass 15.6 -b 112

    Скриншот c названием фильма


    Download .torrent

    Download free and at maximum speed!

    How to Download? · What is a torrent? · Ratings and Limitations

    The site does not extend and does not store electronic(digital) versions of products, and only gives access to a reference catalogue created by users on torrent-files which contain only lists of the hash-sums, the earnest entreaty, with complaints(abuse) to access directly to the user. Files for an exchange on tracker are given by users of a site, and the administration does not bear the responsibility for their maintenance. The request to not fill in the files protected by copyrights, and also files of the illegal maintenance!

    [Profile] [PM]
    Display posts from previous:    
    Reply to topic

    The time now is: Today 05:13

    All times are GMT + 3 Hours

    You cannot post new topics in this forum
    You cannot reply to topics in this forum
    You cannot edit your posts in this forum
    You cannot delete your posts in this forum
    You cannot vote in polls in this forum
    You cannot attach files in this forum
    You cannot download files in this forum