BitTorrentTracker PerecTracker.org
BitTorrentTracker PerecTracker.org
    
Регистрация  ·  Вход
 
 · 
Забыли пароль?

  • Приходите завтра (Евгений Ташков) [1963, комедия, мелодрама, HDTVRip] [Цветная версия]

    Ответить на тему
     
    Автор Сообщение

    Light

    Создавать темы 16-Июн-2015 07:42

           

    [Цитировать]

    Приходите завтра / Цветная версия
    Жанр: комедия, мелодрама
    Год выпуска: 1963
    Продолжительность: 01:32:33

    Режиссёр: Евгений Ташков
    В ролях: Анатолий Папанов, Екатерина Савинова, Борис Бибиков, Антонина Максимова, Юрий Горобец, Надежда Животова, Александр Ширвиндт, Юрий Белов, Александра Денисова, Борис Коковкин
    Описание: Деревенская девушка Фрося Бурлакова, обладающая редким голосом с огромным диапазоном, приезжает в Москву из далекого сибирского хутора "поступать в артистки". Остановившись у едва знакомого скульптора, она отправляется в консерваторию. Но, увы, поздно! Прием уже закончен. Однако, Фрося натура целеустремленная. Проведя в консерватории не один день, она все же добивается, чтобы ее прослушал известный профессор
    Качество видео: HDTVRip
    Формат видео: AVI
    Видео: 720x416 (1.73:1), 25 fps, XviD build 73 ~2057 kbps avg, 0.27 bit/pixel
    Аудио: 48 kHz, AC3 Dolby Digital, 2/0 (L,R) ch, ~192 kbps

    MediaInfo

    Общее
    Полное имя : H:\Приходите.завтра.1963.hdtvrip_[1.46]_[teko].avi
    Формат : AVI
    Формат/Информация : Audio Video Interleave
    Размер файла : 1,46 Гбайт
    Продолжительность : 1 ч. 32 м.
    Общий поток : 2259 Кбит/сек
    Программа кодирования : VirtualDubMod 1.5.10.3 | www.virtualdub-fr.org || (build 2550/release)
    Библиотека кодирования : VirtualDubMod build 2550/release
    Видео
    Идентификатор : 0
    Формат : MPEG-4 Visual
    Профиль формата : Advanced Simple@L5
    Параметр BVOP формата : 1
    Параметр QPel формата : Нет
    Параметр GMC формата : Без точки перехода
    Параметр матрицы формата : Выборочная
    Идентификатор кодека : XVID
    Идентификатор кодека/Подсказка : XviD
    Продолжительность : 1 ч. 32 м.
    Битрейт : 2058 Кбит/сек
    Ширина : 720 пикселей
    Высота : 416 пикселей
    Соотношение сторон : 1,731
    Частота кадров : 25,000 кадров/сек
    Цветовое пространство : YUV
    Субдискретизация насыщенности : 4:2:0
    Битовая глубина : 8 бит
    Тип развёртки : Прогрессивная
    Метод сжатия : С потерями
    Бит/(Пиксели*Кадры) : 0.275
    Размер потока : 1,33 Гбайт (91%)
    Библиотека кодирования : XviD 73
    Аудио
    Идентификатор : 1
    Формат : AC-3
    Формат/Информация : Audio Coding 3
    Расширение режима : CM (complete main)
    Параметр Endianness формата : Big
    Идентификатор кодека : 2000
    Продолжительность : 1 ч. 32 м.
    Вид битрейта : Постоянный
    Битрейт : 192 Кбит/сек
    Каналы : 2 канала
    Расположение каналов : Front: L R
    Частота : 48,0 КГц
    Битовая глубина : 16 бит
    Метод сжатия : С потерями
    Размер потока : 127 Мбайт (8%)
    Выравнивание : Разделение по промежуткам
    Продолжительность промежутка : 40 мс. (1,00 видеокадр)
    Время предзагрузки промежутка : 500 мс.

    Скриншоты

    --
    Скачать .torrent

    Скачать торрент-файл бесплатно и на максимальной скорости!

    Как скачивать? · Что такое торрент? · Рейтинг и ограничения

    !ВНИМАНИЕ!
    Сайт не распространяет и не хранит электронные версии произведений, а занимается лишь лишь предоставлением доступа к создаваемому пользователями каталогу ссылок на торрент-файлы, которые содержат только списки хеш-сумм, убедительная просьба с жалобами обращаться напрямую к пользователю. Файлы для обмена на трекере предоставлены пользователями сайта, и администрация не несёт ответственности за их содержание. Просьба не заливать файлы, защищенные авторскими правами, а также файлы нелегального содержания!


    _________________
    [Профиль] [ЛС]
    Показать сообщения:    
    Ответить на тему

    Текущее время: Сегодня, в 16:31

    Часовой пояс: GMT + 2



    Вы не можете начинать темы
    Вы не можете отвечать на сообщения
    Вы не можете редактировать свои сообщения
    Вы не можете удалять свои сообщения
    Вы не можете голосовать в опросах
    Вы не можете прикреплять файлы к сообщениям
    Вы не можете скачивать файлы