BitTorrentTracker PerecTracker.org
BitTorrentTracker PerecTracker.org
    
Регистрация  ·  Вход
 
 · 
Забыли пароль?

  • Дивергент / Divergent (Нил Бёргер / Neil Burger) [2014, США, Фантастика, приключения, триллер, HDRip] Dub + Original Eng

    Ответить на тему
     
    Автор Сообщение

    Light

    Создавать темы 16-Июн-2015 07:42

           

    [Цитировать]

    Дивергент / Divergent
    Страна: США
    Жанр: Фантастика, приключения, триллер
    Год выпуска: 2014
    Продолжительность: 02:19:40
    Перевод: Профессиональный (дублированный)
    Cубтитры: отсутствуют
    Оригинальная аудиодорожка: английский
    Режиссер: Нил Бёргер / Neil Burger
    В ролях: Шейлин Вудли, Тео Джеймс,
    Джай Кортни, Кейт Уинслет,
    Зои Кравиц, Майлз Теллер,
    Эшли Джадд, Тони Голдуин,
    Мэгги Кью, Рэй Стивенсон и др.
    Описание: В антиутопическом Чикаго будущего существует общество,
    члены которого придумали способ избегать конфликтов и поддерживать
    вокруг незыблемый порядок. Каждый человек по достижении 16 лет
    должен определить, к чему лежит его душа, и в зависимости от своих
    личностных качеств присоединиться к одной из пяти фракций —
    Искренность, Бесстрашие, Эрудиция, Дружелюбие или Отречение...
    Качество видео: HDRip
    Формат видео: AVI
    Vidео: XviD, 720x304 (2.35:1), 23.976 fps, ~1261 kbps avg, 0.240 bit/pixel
    Аudiо #1: Russian (Dolby AC3, 6 ch) CBR 384 kbps, Front: L C R, Side: L R, LFE, 48.0 KHz 16 bits
    Аudiо #2: English (Dolby AC3, 6 ch) CBR 448 kbps, Front: L C R, Side: L R, LFE, 48.0 KHz 16 bits

    MediaInfo

    ОбщееПолное имя : D:\Divergent_2014_HDRip_[perectracker.org].aviФормат : AVIФормат/Информация : Audio Video InterleaveПрофиль формата : OpenDMLРазмер файла : 2,06 ГбайтПродолжительность : 2 ч. 19 м.Общий поток : 2111 Кбит/секПрограмма кодирования : VirtualDubMod 1.5.10.2 (build 2540/release)Библиотека кодирования : VirtualDubMod build 2540/release
    ВидеоИдентификатор : 0Формат : MPEG-4 VisualПрофиль формата : Advanced Simple@L5Параметр BVOP формата : 2Параметр QPel формата : НетПараметр GMC формата : Без точки переходаПараметр матрицы формата : Default (H.263)Режим смешивания : Сжатый битовый потокИдентификатор кодека : XVIDИдентификатор кодека/Подсказка : XviDПродолжительность : 2 ч. 19 м.Битрейт : 1261 Кбит/секШирина : 720 пикселейВысота : 304 пикселяСоотношение сторон : 2,35:1Частота кадров : 23,976 кадра/секЦветовое пространство : YUVСубдискретизация насыщенности : 4:2:0Битовая глубина : 8 битТип развёртки : ПрогрессивнаяМетод сжатия : С потерямиБит/(Пиксели*Кадры) : 0.240Размер потока : 1,23 Гбайт (60%)Библиотека кодирования : XviD 64
    Аудио #1Идентификатор : 1Формат : AC-3Формат/Информация : Audio Coding 3Расширение режима : CM (complete main)Параметр Endianness формата : BigИдентификатор кодека : 2000Продолжительность : 2 ч. 19 м.Вид битрейта : ПостоянныйБитрейт : 384 Кбит/секКаналы : 6 каналовРасположение каналов : Front: L C R, Side: L R, LFEЧастота : 48,0 КГцБитовая глубина : 16 битМетод сжатия : С потерямиРазмер потока : 384 Мбайт (18%)Выравнивание : Разделение по промежуткамПродолжительность промежутка : 42 мс. (1,00 видеокадр)Время предзагрузки промежутка : 500 мс.
    Аудио #2Идентификатор : 2Формат : AC-3Формат/Информация : Audio Coding 3Расширение режима : CM (complete main)Параметр Endianness формата : BigИдентификатор кодека : 2000Продолжительность : 2 ч. 19 м.Вид битрейта : ПостоянныйБитрейт : 448 Кбит/секКаналы : 6 каналовРасположение каналов : Front: L C R, Side: L R, LFEЧастота : 48,0 КГцБитовая глубина : 16 битМетод сжатия : С потерямиРазмер потока : 448 Мбайт (21%)Выравнивание : Разделение по промежуткамПродолжительность промежутка : 42 мс. (1,00 видеокадр)Время предзагрузки промежутка : 500 мс.

    Скриншот c названием фильма

    Скриншоты


    Раздача: По возможности!!!
    Скачать .torrent

    Скачать торрент-файл бесплатно и на максимальной скорости!

    Как скачивать? · Что такое торрент? · Рейтинг и ограничения

    !ВНИМАНИЕ!
    Сайт не распространяет и не хранит электронные версии произведений, а занимается лишь лишь предоставлением доступа к создаваемому пользователями каталогу ссылок на торрент-файлы, которые содержат только списки хеш-сумм, убедительная просьба с жалобами обращаться напрямую к пользователю. Файлы для обмена на трекере предоставлены пользователями сайта, и администрация не несёт ответственности за их содержание. Просьба не заливать файлы, защищенные авторскими правами, а также файлы нелегального содержания!


    _________________
    [Профиль] [ЛС]
    Показать сообщения:    
    Ответить на тему

    Текущее время: Сегодня, в 20:42

    Часовой пояс: GMT + 2



    Вы не можете начинать темы
    Вы не можете отвечать на сообщения
    Вы не можете редактировать свои сообщения
    Вы не можете удалять свои сообщения
    Вы не можете голосовать в опросах
    Вы не можете прикреплять файлы к сообщениям
    Вы не можете скачивать файлы