BitTorrentTracker PerecTracker.org
BitTorrentTracker PerecTracker.org
    
Регистрация  ·  Вход
 
 · 
Забыли пароль?

  • Французский транзит / La French (Седрик Жименес / Cédric Jimenez) [2014, Франция, Бельгия, боевик, триллер, криминал, HDRip] Dub

    Ответить на тему
     
    Автор Сообщение

    Light

    Создавать темы 16-Июн-2015 07:42

           

    [Цитировать]

    Французский транзит / La French
    Страна: Франция, Бельгия
    Жанр: боевик, триллер, криминал
    Год выпуска: 2014
    Продолжительность: 02:15:36
    Перевод: Профессиональный (дублированный)
    Cубтитры: нет
    Режиссер: Седрик Жименес / Cédric Jimenez
    В ролях: Жан Дюжарден, Жиль Леллуш, Селин Саллетт, Мелани Дотей, Бенуа Мажимель, Гийом Гуи, Бруно Тодескини, Федор Аткин, Мусса Мааскри, Пьер Лопез
    Описание: Французский полицейский судья на протяжении многих лет пытается разобраться с одним из самых крупных наркосиндикатов...
    Доп. информация:

    Сэмпл: http://sendfile.su/1128631
    Качество видео: HDRip
    Формат видео: AVI
    Видео: XviD, 1401 kb/s, 24fps, 720x304
    Аудио: AC3, 128 kb/s (2 ch)

    MediaInfo

    Общее
    Полное имя : E:\Frantsuzskiy.tranzit.2014.HDRip.avi
    Формат : AVI
    Формат/Информация : Audio Video Interleave
    Размер файла : 1,46 Гбайт
    Продолжительность : 2 ч. 15 м.
    Общий поток : 1539 Кбит/сек
    Название фильма : 5rancuzskij.3ranzit.2014.D.HDRip.ELEKTRI4KA.uniongang.tv
    Программа кодирования : VirtualDubMod 1.5.10.2 (build 2540/release)
    Библиотека кодирования : VirtualDubMod build 2540/release
    Правообладатель : UNIONGANG&RUSTORRENTS
    Видео
    Идентификатор : 0
    Формат : MPEG-4 Visual
    Профиль формата : Advanced Simple@L5
    Параметр BVOP формата : 2
    Параметр QPel формата : Нет
    Параметр GMC формата : Без точки перехода
    Параметр матрицы формата : Default (MPEG)
    Режим смешивания : Сжатый битовый поток
    Идентификатор кодека : XVID
    Идентификатор кодека/Подсказка : XviD
    Продолжительность : 2 ч. 15 м.
    Битрейт : 1402 Кбит/сек
    Ширина : 720 пикселей
    Высота : 304 пикселя
    Соотношение сторон : 2,35:1
    Частота кадров : 24,000 кадра/сек
    Цветовое пространство : YUV
    Субдискретизация насыщенности : 4:2:0
    Битовая глубина : 8 бит
    Тип развёртки : Прогрессивная
    Метод сжатия : С потерями
    Бит/(Пиксели*Кадры) : 0.267
    Размер потока : 1,33 Гбайт (91%)
    Библиотека кодирования : XviD 73
    Аудио
    Идентификатор : 1
    Формат : AC-3
    Формат/Информация : Audio Coding 3
    Расширение режима : CM (complete main)
    Параметр Endianness формата : Big
    Идентификатор кодека : 2000
    Продолжительность : 2 ч. 15 м.
    Вид битрейта : Постоянный
    Битрейт : 128 Кбит/сек
    Каналы : 2 канала
    Расположение каналов : Front: L R
    Частота : 48,0 КГц
    Битовая глубина : 16 бит
    Метод сжатия : С потерями
    Размер потока : 124 Мбайт (8%)
    Выравнивание : Разделение по промежуткам
    Продолжительность промежутка : 42 мс. (1,00 видеокадр)
    Время предзагрузки промежутка : 500 мс.

    Скриншот c названием фильма

    Скриншоты








    Скачать .torrent

    Скачать торрент-файл бесплатно и на максимальной скорости!

    Как скачивать? · Что такое торрент? · Рейтинг и ограничения

    !ВНИМАНИЕ!
    Сайт не распространяет и не хранит электронные версии произведений, а занимается лишь лишь предоставлением доступа к создаваемому пользователями каталогу ссылок на торрент-файлы, которые содержат только списки хеш-сумм, убедительная просьба с жалобами обращаться напрямую к пользователю. Файлы для обмена на трекере предоставлены пользователями сайта, и администрация не несёт ответственности за их содержание. Просьба не заливать файлы, защищенные авторскими правами, а также файлы нелегального содержания!


    _________________
    [Профиль] [ЛС]
    Показать сообщения:    
    Ответить на тему

    Текущее время: Сегодня, в 17:22

    Часовой пояс: GMT + 2



    Вы не можете начинать темы
    Вы не можете отвечать на сообщения
    Вы не можете редактировать свои сообщения
    Вы не можете удалять свои сообщения
    Вы не можете голосовать в опросах
    Вы не можете прикреплять файлы к сообщениям
    Вы не можете скачивать файлы