BitTorrentTracker PerecTracker.org
BitTorrentTracker PerecTracker.org
    
Регистрация  ·  Вход
 
 · 
Забыли пароль?

  • Последняя искра жизни / La chispa de la vida (Алекс де ла Иглесиа / Alex de la Iglesia) [2011, Испания, Франция, США, драма, DVDRip] MVO + Sub Rus + Original Spa

    Ответить на тему
     
    Автор Сообщение

    Light

    Создавать темы 16-Июн-2015 03:30

           

    [Цитировать]

    Последняя искра жизни / La chispa de la vida
    Страна: Испания, Франция, США
    Жанр: драма
    Год выпуска: 2011
    Продолжительность: 01:34:29
    Перевод: Профессиональный (многоголосый закадровый)
    Cубтитры: русские
    Оригинальная аудиодорожка: испанский

    Режиссер: Алекс де ла Иглесиа / Alex de la Iglesia
    В ролях: Сальма Хайек, Хосе Мота, Бланка Портильо, Хуан Луис Гальярдо, Фернандо Техеро, Мануэль Таллафе, Антонио Гарридо, Каролина Банг, Эдуардо Касанова, Нереа Камачо, Хоакин Климент
    Описание: Безработный пиарщик Роберто пытается устроиться на работу, но его кандидатуру отвергают все агентства. Никого не интересует тот факт, что именно он придумал слоган Кока-колы «Она настоящая». Ситуация резко меняется, когда Роберто попадает в аварию и висит на волоске между жизнью и смертью. Роберто подключает свой опыт в области пиара и превращает аварию в медиа-событие. Он тут же нанимает агента и поручает ему продать эксклюзивные репортажи с места аварии на телеканалы, дабы обеспечить свою семью до конца жизни. Неужели Роберто выживет? Или поплатится жизнью ради денег?
    Качество видео: DVDRip
    Формат видео: AVI
    Видео: 720x304 (2.37:1), 25 fps, XviD build 73 ~1749 kbps avg, 0.32 bit/pixel
    Аудио: 48 kHz, AC3 Dolby Digital, 3/2 (L,C,R,l,r) + LFE ch, ~448 kbps - многоголосый
    Аудио: 48 kHz, AC3 Dolby Digital, 3/2 (L,C,R,l,r) + LFE ch, ~448 kbps - оригинал (отдельным файлом)

    MediaInfo

    Общее
    Полное имя : H:\La.chispa.de.la.vida.2011.dvdrip_[1.46]_[teko]\La.chispa.de.la.vida.2011.dvdrip_[1.46].avi
    Формат : AVI
    Формат/Информация : Audio Video Interleave
    Размер файла : 1,46 Гбайт
    Продолжительность : 1 ч. 34 м.
    Общий поток : 2208 Кбит/сек
    Программа кодирования : VirtualDubMod 1.5.10.3 | www.virtualdub-fr.org || (build 2550/release)
    Библиотека кодирования : VirtualDubMod build 2550/release
    Видео
    Идентификатор : 0
    Формат : MPEG-4 Visual
    Профиль формата : Advanced Simple@L5
    Параметр BVOP формата : 1
    Параметр QPel формата : Нет
    Параметр GMC формата : Без точки перехода
    Параметр матрицы формата : Выборочная
    Идентификатор кодека : XVID
    Идентификатор кодека/Подсказка : XviD
    Продолжительность : 1 ч. 34 м.
    Битрейт : 1750 Кбит/сек
    Ширина : 720 пикселей
    Высота : 304 пикселя
    Соотношение сторон : 2,35:1
    Частота кадров : 25,000 кадров/сек
    Цветовое пространство : YUV
    Субдискретизация насыщенности : 4:2:0
    Битовая глубина : 8 бит
    Тип развёртки : Прогрессивная
    Метод сжатия : С потерями
    Бит/(Пиксели*Кадры) : 0.320
    Размер потока : 1,15 Гбайт (79%)
    Библиотека кодирования : XviD 73
    Аудио
    Идентификатор : 1
    Формат : AC-3
    Формат/Информация : Audio Coding 3
    Расширение режима : CM (complete main)
    Параметр Endianness формата : Big
    Идентификатор кодека : 2000
    Продолжительность : 1 ч. 34 м.
    Вид битрейта : Постоянный
    Битрейт : 448 Кбит/сек
    Каналы : 6 каналов
    Расположение каналов : Front: L C R, Side: L R, LFE
    Частота : 48,0 КГц
    Битовая глубина : 16 бит
    Метод сжатия : С потерями
    Размер потока : 303 Мбайт (20%)
    Выравнивание : Разделение по промежуткам
    Продолжительность промежутка : 40 мс. (1,00 видеокадр)
    Время предзагрузки промежутка : 500 мс.

    Скриншоты

    Релиз группы:

    -
    -
    Скачать .torrent

    Скачать торрент-файл бесплатно и на максимальной скорости!

    Как скачивать? · Что такое торрент? · Рейтинг и ограничения

    !ВНИМАНИЕ!
    Сайт не распространяет и не хранит электронные версии произведений, а занимается лишь лишь предоставлением доступа к создаваемому пользователями каталогу ссылок на торрент-файлы, которые содержат только списки хеш-сумм, убедительная просьба с жалобами обращаться напрямую к пользователю. Файлы для обмена на трекере предоставлены пользователями сайта, и администрация не несёт ответственности за их содержание. Просьба не заливать файлы, защищенные авторскими правами, а также файлы нелегального содержания!


    _________________
    [Профиль] [ЛС]
    Показать сообщения:    
    Ответить на тему

    Текущее время: Сегодня, в 14:28

    Часовой пояс: GMT + 2



    Вы не можете начинать темы
    Вы не можете отвечать на сообщения
    Вы не можете редактировать свои сообщения
    Вы не можете удалять свои сообщения
    Вы не можете голосовать в опросах
    Вы не можете прикреплять файлы к сообщениям
    Вы не можете скачивать файлы