BitTorrentTracker PerecTracker.org
BitTorrentTracker PerecTracker.org
    
Регистрация  ·  Вход
 
 · 
Забыли пароль?

  • Все включено / Датчанки на Мальте / All inclusive (Хелла Йооф / Hella Joof) [2014, Дания, комедия, мелодрама, HDRip-AVC] + Sub Rus + Original Dan

    Ответить на тему
     
    Автор Сообщение

    Light

    Создавать темы 16-Июн-2015 03:30

           

    [Цитировать]

    Все включено / Датчанки на Мальте / All inclusive
    Страна: Дания
    Жанр: комедия, мелодрама
    Год выпуска: 2014
    Продолжительность: 01:29:32
    Перевод: Субтитры (М.Васильев)
    Cубтитры: русские
    Оригинальная аудиодорожка: датский
    Режиссер: Хелла Йооф / Hella Joof
    В ролях: Даница Чурчич, Мария Россинг, Бодиль Ергенсон, Диого Инфанте, Вильям Стенсгаард
    Описание: Главная героиня решает отметить свое 60-летие поездкой на Мальту. Компанию ей составляют две дочери, которые давно уже не общаются и ненавидят друг друга. Одна из них — серьезная женщина и мать троих детей, другая — упорно не желающая взрослеть рокерша, ведущая альтернативный образ жизни... Во время средиземноморского турне участницы этого забавного трио будут переживать романтические приключения и выяснять отношения друг с другом...
    Доп. информация: Фильм полностью снят на Мальте, в картине с избытком присутствует знаменитый немного странный датский юмор и свойственная этой нации меланхолия, без которой датчане прожить не могут. Веселое и грустное идут здесь рука об руку. Сцена, которая только что смешила зрителя, вдруг начинает выжимать слезу.
    Номинации на премию Датской Киноакадемии в категориях "лучший фильм", "лучшая женская роль", "лучший сценарий".
    Премия Датской Ассоциации Кинокритиков в категории "лучшая женская роль" (Бодиль Ергенсон за роль мамы)
    КИНОПОИСК
    IMDB
    Сэмпл
    Релиз состоялся благодаря ВК группе СКАНДИНАВСКИЙ КАЛЕЙДОСКОП

    Еще фильмы из Дании, которые вы должны увидеть

    комедия
    ТРИ ДЕВУШКИ В ПАРИЖЕ
    мелодрама
    ЛИЦЕНЗИЯ НА ЛЮБОВЬ
    Качество видео: HDRip-AVC (рип предоставлен этим пользователем)
    Формат видео: MKV
    Видео: 2200 Kbps, 1152x482 (2.40:1) 24 000 fps, AVC
    Аудио: 448 Kbps, 48.0 KHz, 16 bits, 6 channels, AC 3
    Формат субтитров: softsub (SRT)

    MediaInfo

    General
    Unique ID : 227389272298495330633046541320519555192 (0xAB1194B2ED5093278AF0CD05DC761878)
    Complete name : C:\Users\master\Desktop\Мальта\inclusive (1).mkv
    Format : Matroska
    Format version : Version 4 / Version 2
    File size : 1.65 GiB
    Duration : 1h 29mn
    Overall bit rate : 2 641 Kbps
    Encoded date : UTC 2015-06-13 18:54:16
    Writing application : mkvmerge v7.0.0 ('Where We Going') 32bit built on Jun 9 2014 15:08:34
    Writing library : Lavf55.12.0
    _STATISTICS_WRITING_APP : mkvmerge v7.0.0 ('Where We Going') 32bit built on Jun 9 2014 15:08:34
    _STATISTICS_WRITING_DATE_UTC : 2015-06-13 18:54:16
    _STATISTICS_TAGS : BPS DURATION NUMBER_OF_FRAMES NUMBER_OF_BYTES
    DURATION : 01:29:31.296000000
    NUMBER_OF_FRAMES : 167853
    NUMBER_OF_BYTES : 300792576
    Video
    ID : 1
    Format : AVC
    Format/Info : Advanced Video Codec
    Format profile : High@L4.1
    Format settings, CABAC : Yes
    Format settings, ReFrames : 9 frames
    Codec ID : V_MPEG4/ISO/AVC
    Duration : 1h 29mn
    Bit rate : 2 200 Kbps
    Width : 1 152 pixels
    Height : 482 pixels
    Display aspect ratio : 2.40:1
    Frame rate mode : Constant
    Frame rate : 24.000 fps
    Color space : YUV
    Chroma subsampling : 4:2:0
    Bit depth : 8 bits
    Scan type : Progressive
    Bits/(Pixel*Frame) : 0.165
    Stream size : 1.34 GiB (81%)
    Writing library : x264 core 142 r2495 6a301b6
    Encoding settings : cabac=1 / ref=9 / deblock=1:-3:-3 / analyse=0x3:0x133 / me=umh / subme=9 / psy=1 / psy_rd=1,00:0,00 / mixed_ref=1 / me_range=24 / chroma_me=1 / trellis=2 / 8x8dct=1 / cqm=0 / deadzone=21,11 / fast_pskip=0 / chroma_qp_offset=-2 / threads=6 / lookahead_threads=1 / sliced_threads=0 / nr=0 / decimate=1 / interlaced=0 / bluray_compat=0 / constrained_intra=0 / bframes=6 / b_pyramid=2 / b_adapt=2 / b_bias=0 / direct=3 / weightb=1 / open_gop=0 / weightp=2 / keyint=240 / keyint_min=24 / scenecut=40 / intra_refresh=0 / rc_lookahead=60 / rc=abr / mbtree=1 / bitrate=2200 / ratetol=1,0 / qcomp=0,00 / qpmin=0 / qpmax=69 / qpstep=4 / vbv_maxrate=62500 / vbv_bufsize=78125 / nal_hrd=none / filler=0 / ip_ratio=1,40 / aq=2:1,00
    Default : Yes
    Forced : No
    Color primaries : BT.709
    Transfer characteristics : BT.709
    Matrix coefficients : BT.709
    _STATISTICS_WRITING_APP : mkvmerge v7.0.0 ('Where We Going') 32bit built on Jun 9 2014 15:08:34
    _STATISTICS_WRITING_DATE_UTC : 2015-06-13 18:54:16
    _STATISTICS_TAGS : BPS DURATION NUMBER_OF_FRAMES NUMBER_OF_BYTES
    DURATION : 01:29:32.209000000
    NUMBER_OF_FRAMES : 128933
    NUMBER_OF_BYTES : 1471531488
    Audio
    ID : 2
    Format : AC-3
    Format/Info : Audio Coding 3
    Mode extension : CM (complete main)
    Format settings, Endianness : Big
    Codec ID : A_AC3
    Duration : 1h 29mn
    Bit rate mode : Constant
    Bit rate : 448 Kbps
    Channel(s) : 6 channels
    Channel positions : Front: L C R, Side: L R, LFE
    Sampling rate : 48.0 KHz
    Bit depth : 16 bits
    Compression mode : Lossy
    Delay relative to video : -83ms
    Stream size : 287 MiB (17%)
    Language : Danish
    Default : Yes
    Forced : No
    Menu
    00:00:00.000 : :00:00:00.000
    00:07:41.083 : :00:07:41.000
    00:17:13.208 : :00:17:13.125
    00:22:14.541 : :00:22:14.417
    00:36:00.416 : :00:36:00.292
    00:44:32.666 : :00:44:32.542
    00:50:30.416 : :00:50:30.333
    00:56:35.291 : :00:56:35.167
    01:04:29.791 : :01:04:29.667
    01:12:05.583 : :01:12:05.500
    01:19:31.708 : :01:19:31.500
    01:25:25.666 : :01:25:25.583

    Скриншот c названием фильма

    Скриншоты







    Титры

    1
    00:01:12,467 --> 00:01:15,823
    Я написала на каждой коробке
    с едой, для кого она.
    2
    00:01:15,509 --> 00:01:18,558
    Не перепутай еду для детей
    и для кошек!
    3
    00:01:19,259 --> 00:01:23,514
    Мой голову шампунем от вшей.
    Надо вывести этих паразитов, наконец.
    4
    00:01:24,926 --> 00:01:28,680
    Ты все понял?
    Ларс, ты меня слышишь?
    5
    00:02:06,759 --> 00:02:08,875
    Мне уже пора.
    6
    00:02:15,842 --> 00:02:18,595
    Такси уже здесь!
    Я бегу!
    7
    00:02:31,884 --> 00:02:35,877
    Убирайся, Том.
    Я должна была уехать еще полчаса назад.
    8
    00:02:36,301 --> 00:02:38,053
    Меня зовут Дэвид.
    9
    00:02:44,000 --> 00:02:49,000
    ВСЕ ВКЛЮЧЕНО.
    ДАТЧАНКИ НА МАЛЬТЕ.
    10
    00:02:49,717 --> 00:02:51,765
    Привет.
    11
    00:02:51,676 --> 00:02:54,827
    - Ты опять опоздала!
    - Не нуди.
    12
    00:02:54,828 --> 00:02:57,224
    - Давайте быстрее.
    - Где папа?
    13
    00:02:58,342 --> 00:02:59,798
    Где?
    14
    00:03:00,342 --> 00:03:03,664
    Папа не летит с нами.
    Только мы.
    15
    00:03:04,009 --> 00:03:06,864
    Как это?
    Что такое?
    16
    00:03:07,384 --> 00:03:08,806
    Что случилось?
    17
    00:03:09,967 --> 00:03:11,286
    Папа...
    18
    00:03:12,926 --> 00:03:14,473
    - ...умер.
    - Что?
    19
    00:03:15,759 --> 00:03:17,511
    Как умер?
    20
    00:03:17,884 --> 00:03:20,000
    - Он не умер.
    - Умер.
    21
    00:03:21,342 --> 00:03:22,957
    Для меня умер!
    22
    00:03:23,342 --> 00:03:26,357
    Это она так шутит.
    Не волнуйся.
    23
    00:03:28,467 --> 00:03:30,014
    Извини...
    24
    00:03:32,717 --> 00:03:35,732
    - Родители разводятся.
    - Что?
    25
    00:03:36,217 --> 00:03:38,833
    Что случилось?

    Скачать .torrent

    Скачать торрент-файл бесплатно и на максимальной скорости!

    Как скачивать? · Что такое торрент? · Рейтинг и ограничения

    !ВНИМАНИЕ!
    Сайт не распространяет и не хранит электронные версии произведений, а занимается лишь лишь предоставлением доступа к создаваемому пользователями каталогу ссылок на торрент-файлы, которые содержат только списки хеш-сумм, убедительная просьба с жалобами обращаться напрямую к пользователю. Файлы для обмена на трекере предоставлены пользователями сайта, и администрация не несёт ответственности за их содержание. Просьба не заливать файлы, защищенные авторскими правами, а также файлы нелегального содержания!


    _________________
    [Профиль] [ЛС]
    Показать сообщения:    
    Ответить на тему

    Текущее время: Сегодня, в 17:36

    Часовой пояс: GMT + 2



    Вы не можете начинать темы
    Вы не можете отвечать на сообщения
    Вы не можете редактировать свои сообщения
    Вы не можете удалять свои сообщения
    Вы не можете голосовать в опросах
    Вы не можете прикреплять файлы к сообщениям
    Вы не можете скачивать файлы