Register  ·  Log in
Forgot password?

  • Некоторые девушки / Some Girl(s) (Дэйзи фон Шерлер Майер) [2013, США, драма, комедия, HDRip] DVO (R.G. TheAngelOfDeath & SweetySacrifice)

    Reply to topic
    Author Message


    Post 16-Jun-2015 04:30



    Некоторые девушки / Some Girl(s)
    Страна: США
    Жанр: драма, комедия
    Год выпуска: 2013
    Продолжительность: 01:29:48
    Перевод: Любительский (двухголосый закадровый) R.G. TheAngelOfDeath & SweetySacrifice
    Cубтитры: нет
    Режиссер: Дэйзи фон Шерлер Майер
    В ролях: Адам Броди, Кристен Белл, Зои Казан, Миа Маэстро, Дженнифер Моррисон, Эмили Уотсон, Лаура Манн, Кэтлин Кристи, Мацек Сокальский
    Описание: Успешный писатель решает в преддверии собственной свадьбы встретиться со своими «бывшими», ныне замужними подругами...

    Качество видео: HDRip
    Формат видео: AVI
    Видео: 640x352 , 23.976 fps, XviD , ~948 kbps
    Аудио: 48 kHz, MPEG Layer 3, 2 ch, ~128.00 kbps


    Полное имя : Some Girls[2013]TheAngelOfDeath&SweetySacrifice.avi
    Формат : AVI
    Формат/Информация : Audio Video Interleave
    Размер файла : 697 Мбайт
    Продолжительность : 1 ч. 29 м.
    Общий поток : 1086 Кбит/сек
    Программа кодирования : VirtualDubMod (build 2540/release)
    Библиотека кодирования : VirtualDubMod build 2540/release
    Идентификатор : 0
    Формат : MPEG-4 Visual
    Профиль формата : Advanced Simple@L5
    Параметр BVOP формата : 2
    Параметр QPel формата : Нет
    Параметр GMC формата : Без точки перехода
    Параметр матрицы формата : Default (H.263)
    Режим смешивания : Сжатый битовый поток
    Идентификатор кодека : XVID
    Идентификатор кодека/Подсказка : XviD
    Продолжительность : 1 ч. 29 м.
    Битрейт : 948 Кбит/сек
    Ширина : 640 пикселей
    Высота : 352 пикселя
    Соотношение сторон : 16:9
    Частота кадров : 23,976 кадра/сек
    Цветовое пространство : YUV
    Субдискретизация насыщенности : 4:2:0
    Битовая глубина : 8 бит
    Тип развёртки : Прогрессивная
    Метод сжатия : С потерями
    Бит/(Пиксели*Кадры) : 0.176
    Размер потока : 609 Мбайт (87%)
    Библиотека кодирования : XviD 64
    Идентификатор : 1
    Формат : MPEG Audio
    Версия формата : Version 1
    Профиль формата : Layer 3
    Режим : Joint stereo
    Расширение режима : MS Stereo
    Идентификатор кодека : 55
    Идентификатор кодека/Подсказка : MP3
    Продолжительность : 1 ч. 29 м.
    Вид битрейта : Постоянный
    Битрейт : 128 Кбит/сек
    Каналы : 2 канала
    Частота : 48,0 КГц
    Метод сжатия : С потерями
    Размер потока : 82,2 Мбайт (12%)
    Выравнивание : Соединение по промежуткам
    Продолжительность промежутка : 42 мс. (1,00 видеокадр)
    Время предзагрузки промежутка : 504 мс.

    Скриншот c названием фильма


    Download .torrent

    Download free and at maximum speed!

    How to Download? · What is a torrent? · Ratings and Limitations

    The site does not extend and does not store electronic(digital) versions of products, and only gives access to a reference catalogue created by users on torrent-files which contain only lists of the hash-sums, the earnest entreaty, with complaints(abuse) to access directly to the user. Files for an exchange on tracker are given by users of a site, and the administration does not bear the responsibility for their maintenance. The request to not fill in the files protected by copyrights, and also files of the illegal maintenance!

    [Profile] [PM]
    Display posts from previous:    
    Reply to topic

    The time now is: Today 14:29

    All times are GMT + 3 Hours

    You cannot post new topics in this forum
    You cannot reply to topics in this forum
    You cannot edit your posts in this forum
    You cannot delete your posts in this forum
    You cannot vote in polls in this forum
    You cannot attach files in this forum
    You cannot download files in this forum