BitTorrentTracker PerecTracker.org
BitTorrentTracker PerecTracker.org
    
Регистрация  ·  Вход
 
 · 
Забыли пароль?

  • Континуум / Project Almanac (Дин Израэлайт / Dean Israelite ) [2014, США, Фантастика, триллер, WEB-DL, HD (720p)] DUB + Original + sub (rus)

    Ответить на тему
     
    Автор Сообщение

    rechyn

    Создавать темы 15-Июн-2015 19:06

           

    [Цитировать]

    Континуум / Project Almanac
    «Вчера будет весело»
    6.483 / 10 6.30 / 10
    -Год выпуска: 2014
    Страна: США
    Жанр: Фантастика, триллер
    Продолжительность: 01:46:26
    Перевод: Дублированный (iTunes)
    Оригинальная аудиодорожка: Есть
    Cубтитры: Русские форсированные, Русские
    Режиссёр: Дин Израэлайт
    Сценарий: Джейсон Паган, Эндрю Дючман
    Продюсер: Майкл Бэй, Эндрю Форм, Брэдли Фуллер
    Оператор: Мэттью Дж. Ллойд
    Художник: Мехер Ахмад, Мэри Джейн Форт, Дэвид Смит
    Монтаж: Мартин Бернфельд, Джулиан Кларк
    В ролях: Джонни Уэстон, София Блэк-Д’Элиа, Сэм Лернер, Аллен Евангелиста, Вирджиния Гарднер, Эми Ландекер, Гари Викс, Максен Линтц, Гэри Граббс, Мишель ДеФрайтс
    Бюджет: $12 000 000
    Сборы в США: $22 348 241
    Сборы в мире: + $9 900 000 = $32 248 241
    Сборы в России: $1 555 041
    Мировая премьера: 13 ноября 2014
    Премьера (РФ): 29 января 2015, «Централ Партнершип»
    Релиз на DVD: 22 июня 2015, «Новый Диск»
    Релиз на Blu-Ray: 22 июня 2015, «Новый Диск»
    Описание: Однажды после просмотра старой пленки со дня рождения уже взрослый именинник заметил себя «настоящего» в отражении на видео. Съедаемые любопытством, друзья нашли чертежи таинственного устройства, похожего на машину времени. Они решили доделать ее и испробовать, чтобы вернуться в прошлое и исправить некоторые ошибки.-Качество исходника: WEB-DL 720p (HDClub)
    Качество: WEB-DL
    Тип: HD (720p)
    Контейнер: M4V
    Видео: H.264, 1280x532, 2.40:1, 4 015 Kbps, 23.976 fps
    Аудио 1: Русский/Дублированный (iTunes), AAC / 2.0 / 166 Kbps / 48.0 KHz
    Аудио 2: Русский/Дублированный (iTunes), AC-3 / 5.1 / 384 Kbps / 48.0 KHz
    Аудио 3: Английский/Оригинальная дорожка , AAC / 2.0 / 148 Kbps / 48.0 KHz
    Субтитры 1: Русские форсированные
    Субтитры 2: Русские полные
    -

    iTunes Meta Tags

    Sort Name: Project Almanac
    XID: Apple:vendor_id:2014-711454
    contentID: 959068086
    Copyright: © 2014 Paramount Pictures Corporation. All Rights Reserved.
    Screenwriters: Джейсон Паган, Эндрю Дючман
    Producers: Майкл Бэй, Эндрю Форм, Брэдли Фуллер
    Director: Дин Израэлайт
    Cast: Джонни Уэстон, София Блэк-Д’Элиа, Сэм Лернер, Аллен Евангелиста, Вирджиния Гарднер, Эми Ландекер, Гари Викс, Максен Линтц, Гэри Граббс, Мишель ДеФрайтс, Иван Калинин, Евгения Ваган, Станислав Тикунов, Диомид Виноградов, Мария Иващенко
    Studio:  Paramount Pictures
    Rating: 10
    Long Description: Однажды после просмотра старой пленки со дня рождения уже взрослый именинник заметил себя \"настоящего\" в отражении на видео. Съедаемые любопытством, друзья нашли чертежи таинственного устройства, похожего на машину времени. Они решили доделать ее и испробовать, чтобы вернуться в прошлое и исправить некоторые ошибки.
    Но что будет, если группа отвязных тинейджеров случайно завладеет машиной времени? Однозначно, будет весело! Пока кто-то не нарушит правила, и веселая шутка не обернется кошмаром. Надо торопиться восстановить континуум, пока мир окончательно не разрушен!
    Description: Однажды после просмотра старой пленки со дня рождения уже взрослый именинник заметил себя \"настоящего\" в отражении на видео. Съедаемые любопытством, друзья нашли чертежи таинственного устройства, похожего на машину времени. Они решили доделать ее и испробовать, чтобы вернуться в прошлое и исправить некоторые ошибки.
    Release Date: 2014-11-13T08:00:00Z
    Genre: Sci-Fi & Fantasy
    Artist: Dean Israelite
    Name: Project Almanac

    MediaInfo

    General
    Complete name                            : /Users/imac/HandBrake/Project.Almanac.720p.WEB-DL.m4v
    Format                                   : MPEG-4
    Codec ID                                 : M4V
    File size                                : 3.51 GiB
    Duration                                 : 1h 46mn
    Overall bit rate mode                    : Variable
    Overall bit rate                         : 4 717 Kbps
    Movie name                               : Project Almanac
    Performer                                : Dean Israelite
    Genre                                    : Sci-Fi & Fantasy
    Recorded date                            : UTC 2014-11-13 08:00:00
    Encoded date                             : UTC 2015-06-15 10:23:28
    Tagged date                              : UTC 2015-06-15 10:33:05
    Copyright                                : © 2014 Paramount Pictures Corporation. All Rights Reserved.
    Cover                                    : Yes
    sonm                                     : Project Almanac
    desc                                     : Однажды после просмотра старой пленки со дня рождения уже взрослый именинник заметил себя \"настоящего\" в отражении на видео. Съедаемые любопытством, друзья нашли чертежи таинственного устройства, похожего на машину времени. Они решили доделать ее и испробовать, чтобы вернуться в прошлое и исправить некоторые ошибки.
    ldes                                     : Однажды после просмотра старой пленки со дня рождения уже взрослый именинник заметил себя \"настоящего\" в отражении на видео. Съедаемые любопытством, друзья нашли чертежи таинственного устройства, похожего на машину времени. Они решили доделать ее и испробовать, чтобы вернуться в прошлое и исправить некоторые ошибки. / Но что будет, если группа отвязных тинейджеров случайно завладеет машиной времени? Однозначно, будет весело! Пока кто-то не нарушит правила, и веселая шутка не обернется кошмаром. Надо торопиться восстановить континуум, пока мир окончательно не разрушен!
    hdvd                                     : 1
    stik                                     : 9
    rtng                                     : 0
    cnID                                     : 959068086
    xid                                      : Apple:vendor_id:2014-711454
    iTunEXTC                                 : mpaa|PG-13|300|
    iTunMOVI                                 : <?xml version=\"1.0\" encoding=\"UTF-8\"?> / <!DOCTYPE plist PUBLIC \"-//Apple//DTD PLIST 1.0//EN\" \"http://anonym.to/?http://www.apple.com/DTDs/PropertyList-1.0.dtd\"> / <plist version=\"1.0\"> / <dict> /  <key>cast</key> /  <array> /   <dict> /    <key>name</key> /    <string>Джонни Уэстон</string> /   </dict> /   <dict> /    <key>name</key> /    <string>София Блэк-Д’Элиа</string> /   </dict> /   <dict> /    <key>name</key> /    <string>Сэм Лернер</string> /   </dict> /   <dict> /    <key>name</key> /    <string>Аллен Евангелиста</string> /   </dict> /   <dict> /    <key>name</key> /    <string>Вирджиния Гарднер</string> /   </dict> /   <dict> /    <key>name</key> /    <string>Эми Ландекер</string> /   </dict> /   <dict> /    <key>name</key> /    <string>Гари Викс</string> /   </dict> /   <dict> /    <key>name</key> /    <string>Максен Линтц</string> /   </dict> /   <dict> /    <key>name</key> /    <string>Гэри Граббс</string> /   </dict> /   <dict> /    <key>name</key> /    <string>Мишель ДеФрайтс</string> /   </dict> /   <dict> /    <key>name</key> /    <string>Иван Калинин</string> /   </dict> /   <dict> /    <key>name</key> /    <string>Евгения Ваган</string> /   </dict> /   <dict> /    <key>name</key> /    <string>Станислав Тикунов</string> /   </dict> /   <dict> /    <key>name</key> /    <string>Диомид Виноградов</string> /   </dict> /   <dict> /    <key>name</key> /    <string>Мария Иващенко</string> /   </dict> /  </array> /  <key>directors</key> /  <array> /   <dict> /    <key>name</key> /    <string>Дин Израэлайт</string> /   </dict> /  </array> /  <key>producers</key> /  <array> /   <dict> /    <key>name</key> /    <string>Майкл Бэй</string> /   </dict> /   <dict> /    <key>name</key> /    <string>Эндрю Форм</string> /   </dict> /   <dict> /    <key>name</key> /    <string>Брэдли Фуллер</string> /   </dict> /  </array> /  <key>screenwriters</key> /  <array> /   <dict> /    <key>name</key> /    <string>Джейсон Паган</string> /   </dict> /   <dict> /    <key>name</key> /    <string>Эндрю Дючман</string> /   </dict> /  </array> /  <key>studio</key> /  <string> Paramount Pictures</string> / </dict> / </plist>
    Video #1
    ID                                       : 1
    Format                                   : AVC
    Format/Info                              : Advanced Video Codec
    Format profile                           : Main@L3.1
    Format settings, CABAC                   : No
    Format settings, ReFrames                : 2 frames
    Codec ID                                 : avc1
    Codec ID/Info                            : Advanced Video Coding
    Duration                                 : 1h 46mn
    Bit rate                                 : 4 015 Kbps
    Maximum bit rate                         : 13.4 Mbps
    Width                                    : 1 280 pixels
    Height                                   : 532 pixels
    Display aspect ratio                     : 2.40:1
    Frame rate mode                          : Constant
    Frame rate                               : 23.976 fps
    Color space                              : YUV
    Chroma subsampling                       : 4:2:0
    Bit depth                                : 8 bits
    Scan type                                : Progressive
    Bits/(Pixel*Frame)                       : 0.246
    Stream size                              : 2.98 GiB (85%)
    Title                                    : Project Almanac _2015_ _ Release for HDCLUB
    Language                                 : English
    Encoded date                             : UTC 2015-06-15 10:23:28
    Tagged date                              : UTC 2015-06-15 10:25:39
    Color primaries                          : BT.709-5, BT.1361, IEC 61966-2-4, SMPTE RP177
    Transfer characteristics                 : BT.709-5, BT.1361
    Matrix coefficients                      : BT.709-5, BT.1361, IEC 61966-2-4 709, SMPTE RP177
    Video #2
    ID                                       : 8
    Format                                   : JPEG
    Codec ID                                 : jpeg
    Duration                                 : 1h 46mn
    Bit rate mode                            : Variable
    Bit rate                                 : 433 bps
    Width                                    : 640 pixels
    Height                                   : 266 pixels
    Display aspect ratio                     : 2.40:1
    Frame rate mode                          : Variable
    Frame rate                               : 0.002 fps
    Minimum frame rate                       : 0.002 fps
    Maximum frame rate                       : 0.003 fps
    Color space                              : YUV
    Chroma subsampling                       : 4:2:0
    Bit depth                                : 8 bits
    Compression mode                         : Lossy
    Bits/(Pixel*Frame)                       : 1.272
    Stream size                              : 370 KiB (0%)
    Language                                 : English
    Encoded date                             : UTC 2015-06-15 10:32:37
    Tagged date                              : UTC 2015-06-15 10:32:37
    Audio #1
    ID                                       : 2
    Format                                   : AAC
    Format/Info                              : Advanced Audio Codec
    Format profile                           : LC
    Codec ID                                 : 40
    Duration                                 : 1h 46mn
    Bit rate mode                            : Variable
    Bit rate                                 : 166 Kbps
    Maximum bit rate                         : 256 Kbps
    Channel(s)                               : 2 channels
    Channel positions                        : Front: L R
    Sampling rate                            : 48.0 KHz
    Compression mode                         : Lossy
    Stream size                              : 126 MiB (4%)
    Title                                    : AAC AC3 5.1 _ 384 kbps _ DUB_ iTunes
    Language                                 : Russian
    Encoded date                             : UTC 2015-06-15 10:21:06
    Tagged date                              : UTC 2015-06-15 10:25:39
    Audio #2
    ID                                       : 3
    Format                                   : AC-3
    Format/Info                              : Audio Coding 3
    Mode extension                           : CM (complete main)
    Format settings, Endianness              : Big
    Codec ID                                 : ac-3
    Duration                                 : 1h 46mn
    Bit rate mode                            : Constant
    Bit rate                                 : 384 Kbps
    Channel(s)                               : 6 channels
    Channel positions                        : Front: L C R, Side: L R, LFE
    Sampling rate                            : 48.0 KHz
    Bit depth                                : 16 bits
    Compression mode                         : Lossy
    Stream size                              : 292 MiB (8%)
    Title                                    : AC3 AC3 5.1 _ 384 kbps _ DUB_ iTunes
    Language                                 : Russian
    Encoded date                             : UTC 2015-06-15 10:25:24
    Tagged date                              : UTC 2015-06-15 10:25:39
    Audio #3
    ID                                       : 4
    Format                                   : AAC
    Format/Info                              : Advanced Audio Codec
    Format profile                           : LC
    Codec ID                                 : 40
    Duration                                 : 1h 46mn
    Bit rate mode                            : Variable
    Bit rate                                 : 148 Kbps
    Maximum bit rate                         : 261 Kbps
    Channel(s)                               : 2 channels
    Channel positions                        : Front: L R
    Sampling rate                            : 48.0 KHz
    Compression mode                         : Lossy
    Stream size                              : 112 MiB (3%)
    Title                                    : AAC 2.0 _ 160 kbps
    Language                                 : English
    Encoded date                             : UTC 2015-06-15 10:25:35
    Tagged date                              : UTC 2015-06-15 10:25:39
    Text #1
    ID                                       : 5
    Format                                   : Timed text
    Muxing mode                              : sbtl
    Codec ID                                 : tx3g
    Duration                                 : 1h 41mn
    Bit rate mode                            : Variable
    Bit rate                                 : 1 bps
    Stream size                              : 428 Bytes (0%)
    Title                                    : Forced_ iTunes
    Language                                 : Russian
    Encoded date                             : UTC 2015-06-15 10:25:39
    Tagged date                              : UTC 2015-06-15 10:25:39
    Text #2
    ID                                       : 6
    Format                                   : Timed text
    Muxing mode                              : sbtl
    Codec ID                                 : tx3g
    Duration                                 : 1h 41mn
    Bit rate mode                            : Variable
    Bit rate                                 : 130 bps
    Stream size                              : 96.8 KiB (0%)
    Title                                    : iTunes
    Language                                 : Russian
    Encoded date                             : UTC 2015-06-15 10:25:39
    Tagged date                              : UTC 2015-06-15 10:25:39
    Text #3
    ID                                       : 7
    Format                                   : Apple text
    Codec ID                                 : text
    Duration                                 : 1h 46mn
    Bit rate mode                            : Variable
    Bit rate                                 : 0 bps
    Stream size                              : 215 Bytes (0%)
    Language                                 : English
    Encoded date                             : UTC 2015-06-15 10:27:19
    Tagged date                              : UTC 2015-06-15 10:27:19

    Скриншоты

    -

    Релиз подготовлен для просмотра на Apple TV, iPad, iPhone, iPod Touch.
    Для просмотра данного релиза на компьютере с ОС Windows рекомендуется использовать VLC media player
    Скачать .torrent

    Скачать торрент-файл бесплатно и на максимальной скорости!

    Как скачивать? · Что такое торрент? · Рейтинг и ограничения

    !ВНИМАНИЕ!
    Сайт не распространяет и не хранит электронные версии произведений, а занимается лишь лишь предоставлением доступа к создаваемому пользователями каталогу ссылок на торрент-файлы, которые содержат только списки хеш-сумм, убедительная просьба с жалобами обращаться напрямую к пользователю. Файлы для обмена на трекере предоставлены пользователями сайта, и администрация не несёт ответственности за их содержание. Просьба не заливать файлы, защищенные авторскими правами, а также файлы нелегального содержания!


    _________________
    [Профиль] [ЛС]
    Показать сообщения:    
    Ответить на тему

    Текущее время: Сегодня, в 04:42

    Часовой пояс: GMT + 2



    Вы не можете начинать темы
    Вы не можете отвечать на сообщения
    Вы не можете редактировать свои сообщения
    Вы не можете удалять свои сообщения
    Вы не можете голосовать в опросах
    Вы не можете прикреплять файлы к сообщениям
    Вы не можете скачивать файлы