BitTorrentTracker PerecTracker.org
BitTorrentTracker PerecTracker.org
    
Регистрация  ·  Вход
 
 · 
Забыли пароль?

  • Небесный меч / Heavenly Sword (Ган Хо Джанг / Gun Ho Jang) [2014, мультфильм, фэнтези, боевик, приключения, WEB-DLRip] VO

    Ответить на тему
     
    Автор Сообщение

    rechyn

    Создавать темы 15-Июн-2015 19:06

           

    [Цитировать]

    Небесный меч
    Heavenly Sword
    Страна: США
    Жанр: мультфильм, фэнтези, боевик, приключения
    Продолжительность: 01:26:31
    Год выпуска: 2014-Перевод: Одноголосый закадровый ~ Павел Морозов
    Русские субтитры: есть
    Режиссёр: Ган Хо Джанг / Gun Ho Jang-Роли озвучивали: Эшли Болл, Бэрри Деннен, Томас Джейн, Альфред Молина, Нолан Норт, Will Spagnola, Анна Торв-Описание: Полнометражный мультфильм по известной игре Heavenly Sword. Тысячи лет прошло с тех времен, когда злостный король по имени Ворон захватил практически всю земли и вскоре должна была покрылся во тьму и ужас для простых людей. Но против него выступил небесный посланник, дабы прекратить эту несправедливость. В жестоком бою он смог одолеть ужасного царя и мир снова стал светлым и спокойным. В результате этого боя, в месте сражения появился небесный меч, который обладает огромной силой. Тот, кто обладает им, может изменить все на своем пути – либо ввести в процветание, либо вовсе его разрушить…-Релиз:
    | | -Качество: WEB-DLRip
    Формат: AVI
    Видео: 688x384 (1.79:1), 23,976 fps, XviD 66 ~1 073 kbps avg, 0.17 bit/pixel
    Аудио: 48.0 kHz, MPEG Layer 3, 2/0 (L,R) ch, ~128 kbps |
    Субтитры: отсутствуют

    MI


    General
    Complete name : D:\Heavenly.Sword.2014.WEB-DLRip.748.avi
    Format : AVI
    Format/Info : Audio Video Interleave
    File size : 749 MiB
    Duration : 1h 26mn
    Overall bit rate : 1 210 Kbps
    Writing application : VirtualDubMod 1.5.10.2 (build 2540/release)
    Writing library : VirtualDubMod build 2540/release
    Video
    ID : 0
    Format : MPEG-4 Visual
    Format profile : Advanced Simple@L5
    Format settings, BVOP : 1
    Format settings, QPel : No
    Format settings, GMC : No warppoints
    Format settings, Matrix : Custom
    Codec ID : XVID
    Codec ID/Hint : XviD
    Duration : 1h 26mn
    Bit rate : 1 073 Kbps
    Width : 688 pixels
    Height : 384 pixels
    Display aspect ratio : 16:9
    Frame rate : 23.976 fps
    Color space : YUV
    Chroma subsampling : 4:2:0
    Bit depth : 8 bits
    Scan type : Progressive
    Compression mode : Lossy
    Bits/(Pixel*Frame) : 0.169
    Stream size : 664 MiB (89%)
    Writing library : XviD 66
    Audio
    ID : 1
    Format : MPEG Audio
    Format version : Version 1
    Format profile : Layer 3
    Codec ID : 55
    Codec ID/Hint : MP3
    Duration : 1h 26mn
    Bit rate mode : Constant
    Bit rate : 128 Kbps
    Channel(s) : 2 channels
    Sampling rate : 48.0 KHz
    Compression mode : Lossy
    Stream size : 79.2 MiB (11%)
    Alignment : Aligned on interleaves
    Interleave, duration : 42 ms (1.00 video frame)
    Interleave, preload duratio : 504 ms

    Скриншоты

    Скачать .torrent

    Скачать торрент-файл бесплатно и на максимальной скорости!

    Как скачивать? · Что такое торрент? · Рейтинг и ограничения

    !ВНИМАНИЕ!
    Сайт не распространяет и не хранит электронные версии произведений, а занимается лишь лишь предоставлением доступа к создаваемому пользователями каталогу ссылок на торрент-файлы, которые содержат только списки хеш-сумм, убедительная просьба с жалобами обращаться напрямую к пользователю. Файлы для обмена на трекере предоставлены пользователями сайта, и администрация не несёт ответственности за их содержание. Просьба не заливать файлы, защищенные авторскими правами, а также файлы нелегального содержания!


    _________________
    [Профиль] [ЛС]
    Показать сообщения:    
    Ответить на тему

    Текущее время: Сегодня, в 14:20

    Часовой пояс: GMT + 2



    Вы не можете начинать темы
    Вы не можете отвечать на сообщения
    Вы не можете редактировать свои сообщения
    Вы не можете удалять свои сообщения
    Вы не можете голосовать в опросах
    Вы не можете прикреплять файлы к сообщениям
    Вы не можете скачивать файлы