BitTorrentTracker PerecTracker.org
BitTorrentTracker PerecTracker.org
    
Регистрация  ·  Вход
 
 · 
Забыли пароль?

  • Стеклянные марионетки / Glassdukkene (Нильс Гауп / Nils Gaup) [2014, Норвегия, детектив, триллер, WEB-DLRip] VO + Sub Nor

    Ответить на тему
     
    Автор Сообщение

    Light

    Создавать темы 15-Июн-2015 10:42

           

    [Цитировать]

    Стеклянные марионетки / GlassdukkeneСтрана: Норвегия
    Жанр: детектив, триллер
    Год выпуска: 2014
    Продолжительность: 01:34:10
    Перевод: Одноголосый закадровый
    Cубтитры: норвежские (hardsub)
    Режиссер: Нильс Гауп / Nils Gaup
    В ролях: Стиг Хенрик Хофф, Лена Кристин Эллингсен, Андерс Дальберг, Хенрик Местад, Аня Сайва Бьёрнстад, Рейдар Сёренсен, Нина Индис Сневе, Йертруд Юнге, Свейн Харри Хауге, Гар Эмиль Эльвенес, Улла Мари Брок, Ингер Катрине Хансен
    В полицию приходит сообщение о пропаже молодой студентки Лизы, которая не сделала обычный звонок матери. За дело берётся полицейский инспектор Аслак Эйра, однако никакой существенной информации получить ему не удаётся. В ветреный осенний день тело студентки находят в озере на острове Тромсё. К удивлению инспектора, обнаруживается, что девушка не утонула. Более того, её тело побывало в морской воде. Пока полиция рыщет в потёмках, пропадает ещё одна девушка студентка. Борьба за спасение её жизни и поимку убийцы становится гонкой против времени. А для самого Аслака она становится вопросом жизни и смерти, поскольку в дело оказывается вовлечён его 16-летний сын.
    Сэмпл
    Качество видео: WEB-DLRip
    Формат видео: AVI
    Видео: 1872 Кбит/сек 720 x 304 (2.368) at 24.924 fps
    Аудио: 192 Кбит/сек 2 канала, 44,1 КГц

    MediaInfo

    Формат : AVI
    Формат/Информация : Audio Video Interleave
    Размер файла : 1,37 Гбайт
    Продолжительность : 1 ч. 34 м.
    Общий поток : 2076 Кбит/сек
    Библиотека кодирования : VirtualDub build 34676/release
    Видео
    Идентификатор : 0
    Формат : MPEG-4 Visual
    Профиль формата : Advanced Simple@L5
    Параметр BVOP формата : 2
    Параметр QPel формата : Нет
    Параметр GMC формата : Без точки перехода
    Параметр матрицы формата : Default (MPEG)
    Режим смешивания : Сжатый битовый поток
    Идентификатор кодека : XVID
    Идентификатор кодека/Подсказка : XviD
    Продолжительность : 1 ч. 34 м.
    Битрейт : 1872 Кбит/сек
    Ширина : 720 пикселей
    Высота : 304 пикселя
    Соотношение сторон : 2,35:1
    Частота кадров : 24,924 кадров/сек
    Частота кадров в оригинале : 24,928 кадров/сек
    Цветовое пространство : YUV
    Субдискретизация насыщенности : 4:2:0
    Битовая глубина : 8 бит
    Тип развёртки : Прогрессивная
    Метод сжатия : С потерями
    Бит/(Пиксели*Кадры) : 0.343
    Размер потока : 1,23 Гбайт (90%)
    Библиотека кодирования : XviD 64
    Аудио
    Идентификатор : 1
    Формат : MPEG Audio
    Версия формата : Version 1
    Профиль формата : Layer 3
    Идентификатор кодека : 55
    Идентификатор кодека/Подсказка : MP3
    Продолжительность : 1 ч. 34 м.
    Вид битрейта : Постоянный
    Битрейт : 192 Кбит/сек
    Каналы : 2 канала
    Частота : 44,1 КГц
    Метод сжатия : С потерями
    Размер потока : 129 Мбайт (9%)
    Выравнивание : Соединение по промежуткам
    Продолжительность промежутка : 26 мс. (0,65 видеокадр)
    Время предзагрузки промежутка : 522 мс.

    Скриншот c названием фильма

    Скриншоты

    Скачать .torrent

    Скачать торрент-файл бесплатно и на максимальной скорости!

    Как скачивать? · Что такое торрент? · Рейтинг и ограничения

    !ВНИМАНИЕ!
    Сайт не распространяет и не хранит электронные версии произведений, а занимается лишь лишь предоставлением доступа к создаваемому пользователями каталогу ссылок на торрент-файлы, которые содержат только списки хеш-сумм, убедительная просьба с жалобами обращаться напрямую к пользователю. Файлы для обмена на трекере предоставлены пользователями сайта, и администрация не несёт ответственности за их содержание. Просьба не заливать файлы, защищенные авторскими правами, а также файлы нелегального содержания!


    _________________
    [Профиль] [ЛС]
    Показать сообщения:    
    Ответить на тему

    Текущее время: Сегодня, в 06:37

    Часовой пояс: GMT + 2



    Вы не можете начинать темы
    Вы не можете отвечать на сообщения
    Вы не можете редактировать свои сообщения
    Вы не можете удалять свои сообщения
    Вы не можете голосовать в опросах
    Вы не можете прикреплять файлы к сообщениям
    Вы не можете скачивать файлы