Register  ·  Log in
Forgot password?

  • Иллюзия обмана / Now You See Me (Луи Летерье / Louis Leterrier) [2013, Франция, США, триллер, криминал, детектив, BDRip] [Расширенная версия / Extended Cut] Dub

    Reply to topic
    Author Message


    Post 15-Jun-2015 11:42



    Иллюзия обмана / Now You See Me

    «Чем вы ближе, тем меньше вы видите»
    -Страна: Франция, США
    Студии: Summit Entertainment, K/O Paper Products, SOIXAN7E QUIN5E
    Жанр: триллер, криминал, детектив
    Год выпуска: 2013
    Продолжительность: 02:04:48
    Перевод: Профессиональный (дублированный) - | BD CEE | + | вставки Ю.Сербина на расширенные моменты. |
    Оригинальная аудиодорожка: нет-Режиссер: Луи Летерье / Louis Leterrier-В ролях: Джесси Айзенберг, Марк Руффало, Вуди Харрельсон, Мелани Лоран, Айла Фишер, Дэйв Франко, Майкл Кейн, Морган Фриман, Майкл Келли...-Описание: Команда лучших иллюзионистов мира проворачивает дерзкие ограбления прямо во время своих шоу, играя в кошки-мышки с агентами ФБР.-Доп. информация: Расширенная версия длиннее театральной ~ на 9 мин.--Качество видео: BDRip | Now.You.See.Me.2013.1080p.BluRay.REMUX.DTS-HD.MA.7.1-PublicHD |
    Формат видео: AVI
    Видео: 720x304, 23.976 fps, XviD build 73 ~1498 kbps avg, 0.285 bit/pixel
    Аудио: 48 kHz, AC3 Dolby Digital, 2/0 (L,R) ch, ~192.00 kbps | Dub - BD CEE-

    Дополнительно о фильме:

    Производство, студия дубляжа, прокат:

    Знаете ли вы, что...

    Ошибки в фильме...


    Complete name : Now.You.See.Me.By_Flash.avi
    Format : AVI
    Format/Info : Audio Video Interleave
    File size : 1.31 GiB
    Duration : 2h 4mn
    Overall bit rate : 1 503 Kbps
    ID : 0
    Format : MPEG-4 Visual
    Format profile : Advanced Simple@L5
    Format settings, BVOP : 1
    Format settings, QPel : No
    Format settings, GMC : No warppoints
    Format settings, Matrix : Custom
    Codec ID : XVID
    Codec ID/Hint : XviD
    Duration : 2h 4mn
    Bit rate : 1 498 Kbps
    Width : 720 pixels
    Height : 304 pixels
    Display aspect ratio : 2.35:1
    Frame rate : 23.976 fps
    Color space : YUV
    Chroma subsampling : 4:2:0
    Bit depth : 8 bits
    Scan type : Progressive
    Compression mode : Lossy
    Bits/(Pixel*Frame) : 0.285
    Stream size : 1.31 GiB (100%)
    Writing library : XviD 73
    ID : 1
    Format : AC-3
    Format/Info : Audio Coding 3
    Mode extension : CM (complete main)
    Format settings, Endianness : Big
    Codec ID : 2000
    Duration : 1h 35mn
    Bit rate mode : Constant
    Bit rate : 192 Kbps
    Channel(s) : 2 channels
    Channel positions : Front: L R
    Sampling rate : 48.0 KHz
    Bit depth : 16 bits
    Compression mode : Lossy
    Stream size : 131 MiB (11%)
    Alignment : Split accross interleaves
    Interleave, duration : 42 ms (1.00 video frame)
    Interleave, preload duration : 500 ms

    Скриншот c названием фильма


    Download .torrent

    Download free and at maximum speed!

    How to Download? · What is a torrent? · Ratings and Limitations

    The site does not extend and does not store electronic(digital) versions of products, and only gives access to a reference catalogue created by users on torrent-files which contain only lists of the hash-sums, the earnest entreaty, with complaints(abuse) to access directly to the user. Files for an exchange on tracker are given by users of a site, and the administration does not bear the responsibility for their maintenance. The request to not fill in the files protected by copyrights, and also files of the illegal maintenance!

    [Profile] [PM]
    Display posts from previous:    
    Reply to topic

    The time now is: Today 00:01

    All times are GMT + 3 Hours

    You cannot post new topics in this forum
    You cannot reply to topics in this forum
    You cannot edit your posts in this forum
    You cannot delete your posts in this forum
    You cannot vote in polls in this forum
    You cannot attach files in this forum
    You cannot download files in this forum