BitTorrentTracker PerecTracker.org
BitTorrentTracker PerecTracker.org
    
Регистрация  ·  Вход
 
 · 
Забыли пароль?

  • Октавия / Octavia (Дэвид Биэрд / David Beaird) [1984, США, драма, HDTV 1080i] DVO (НТВ+)

    Ответить на тему
     
    Автор Сообщение

    Flirldrerve

    Создавать темы 14-Июн-2015 22:06

           

    [Цитировать]

    Октавия / Octavia
    Страна: США
    Жанр: драма
    Год выпуска: 1984
    Продолжительность: 01:25:17
    Перевод: Профессиональный (двухголосый закадровый) НТВ+
    Cубтитры: нет
    Оригинальная аудиодорожка: нет
    Режиссер: Дэвид Биэрд / David Beaird
    В ролях: Сьюзэн Кертис, Нил Кинселла, Джэйк Фоли, Д.Б. Файл, Том Вагнер, Джеймс Эрик Стинсон, Адам Боффи, Стив Тлапа, Том Йэтс
    Описание: 19-летняя слепая девушка Октавия живет в собственном доме с рождения, никуда не выходя и практчески ни с кем не общается. Она постоянно в конфликте с отцом - тираном, который применяет физическое насилие к ней, обвиня в смерти матери. Случайно в их дом забирается беглый каторжник Бо и она бежит с ним подальше от этого кошмара. Она получет свободу, любовь, секс ... и зло, боль и трагедию: трое байкеров жестоко избивают Бо и насилуют девушку, но Октавия находит силы отомстить...
    II Сэмпл II IMDB II
    Тип релиза: HDTV 1080i
    Контейнер: TS
    Видео: AVC / 1920x1080 / 16:9 / 25.0fps / Bit rate 5953 Kbps
    Аудио: MP2 / 48.0 KHz / 2ch. / 192kbps / rus / dvo / НТВ+

    MediaInfo

    Общее
    Идентификатор : 12 (0xC)
    Полное имя : H:\!_Torrent\Octavia.1984.HDTV1080i.ts
    Формат : MPEG-TS
    Размер файла : 3,85 Гбайт
    Продолжительность : 1 ч. 25 м.
    Режим общего битрейта : Переменный
    Общий поток : 6466 Кбит/сек
    Видео
    Идентификатор : 1606 (0x646)
    Идентификатор меню : 606 (0x25E)
    Формат : AVC
    Формат/Информация : Advanced Video Codec
    Профиль формата : High@L4
    Параметр CABAC формата : Да
    Параметр ReFrames формата : 3 кадра
    Параметр GOP формата : M=4, N=32
    Идентификатор кодека : 27
    Продолжительность : 1 ч. 25 м.
    Битрейт : 5953 Кбит/сек
    Ширина : 1920 пикселей
    Высота : 1080 пикселей
    Соотношение сторон : 16:9
    Частота кадров : 25,000 кадров/сек
    Стандарт вещания : Component
    Цветовое пространство : YUV
    Субдискретизация насыщенности : 4:2:0
    Битовая глубина : 8 бит
    Тип развёртки : Чересстрочная
    Порядок развёртки : Верхнее поле первое
    Бит/(Пиксели*Кадры) : 0.115
    Размер потока : 3,55 Гбайт (92%)
    Цветовой диапазон : Limited
    Основные цвета : BT.709
    Характеристики трансфера : BT.709
    Коэффициенты матрицы : BT.709
    Аудио
    Идентификатор : 2606 (0xA2E)
    Идентификатор меню : 606 (0x25E)
    Формат : MPEG Audio
    Версия формата : Version 1
    Профиль формата : Layer 2
    Идентификатор кодека : 4
    Продолжительность : 1 ч. 25 м.
    Вид битрейта : Постоянный
    Битрейт : 192 Кбит/сек
    Каналы : 2 канала
    Частота : 48,0 КГц
    Метод сжатия : С потерями
    Размер потока : 117 Мбайт (3%)
    Язык : Russian

    Скриншоты


    Скачать .torrent

    Скачать торрент-файл бесплатно и на максимальной скорости!

    Как скачивать? · Что такое торрент? · Рейтинг и ограничения

    !ВНИМАНИЕ!
    Сайт не распространяет и не хранит электронные версии произведений, а занимается лишь лишь предоставлением доступа к создаваемому пользователями каталогу ссылок на торрент-файлы, которые содержат только списки хеш-сумм, убедительная просьба с жалобами обращаться напрямую к пользователю. Файлы для обмена на трекере предоставлены пользователями сайта, и администрация не несёт ответственности за их содержание. Просьба не заливать файлы, защищенные авторскими правами, а также файлы нелегального содержания!


    _________________
    [Профиль] [ЛС]
    Показать сообщения:    
    Ответить на тему

    Текущее время: Сегодня, в 18:21

    Часовой пояс: GMT + 2



    Вы не можете начинать темы
    Вы не можете отвечать на сообщения
    Вы не можете редактировать свои сообщения
    Вы не можете удалять свои сообщения
    Вы не можете голосовать в опросах
    Вы не можете прикреплять файлы к сообщениям
    Вы не можете скачивать файлы