BitTorrentTracker PerecTracker.org
BitTorrentTracker PerecTracker.org
    
Регистрация  ·  Вход
 
 · 
Забыли пароль?

  • Небесный меч / Heavenly Sword (Ган Хо Джанг / Gun Ho Jang) [2014, мультфильм, фэнтези, боевик, приключения, WEB-DLRip] VO + Eng + sub (rus, eng)

    Ответить на тему
     
    Автор Сообщение

    rechyn

    Создавать темы 14-Июн-2015 22:06

           

    [Цитировать]

    Небесный меч
    Heavenly Sword
    Страна: США
    Жанр: мультфильм, фэнтези, боевик, приключения
    Продолжительность: 01:26:31
    Год выпуска: 2014-Перевод: Одноголосый закадровый ~ Павел Морозов
    Русские субтитры: есть
    Режиссёр: Ган Хо Джанг / Gun Ho Jang-Роли озвучивали: Эшли Болл, Бэрри Деннен, Томас Джейн, Альфред Молина, Нолан Норт, Will Spagnola, Анна Торв-Описание: Полнометражный мультфильм по известной игре Heavenly Sword. Тысячи лет прошло с тех времен, когда злостный король по имени Ворон захватил практически всю земли и вскоре должна была покрылся во тьму и ужас для простых людей. Но против него выступил небесный посланник, дабы прекратить эту несправедливость. В жестоком бою он смог одолеть ужасного царя и мир снова стал светлым и спокойным. В результате этого боя, в месте сражения появился небесный меч, который обладает огромной силой. Тот, кто обладает им, может изменить все на своем пути – либо ввести в процветание, либо вовсе его разрушить…-Релиз:
    | | -Качество: WEB-DLRip
    Формат: AVI
    Видео: 720x400 (1.80:1), 23,976 fps, XviD 66 ~1 645 kbps avg, 0.24 bit/pixel
    Аудио: 48 kHz, AC3 Dolby Digital, 3/2 (L,C,R,l,r) + LFE ch, ~384 kbps avg |VO|
    Аудио: 48 kHz, AC3 Dolby Digital, 3/2 (L,C,R,l,r) + LFE ch, ~384 kbps avg |ENG|
    Субтитры: Russian, English [srt]

    MI


    General
    Complete name : D:\incarcare\rip gata\Heavenly.Sword.2014.WEB-DLRip\Heavenly.Sword.2014.WEB-DLRip.avi
    Format : AVI
    Format/Info : Audio Video Interleave
    File size : 1.47 GiB
    Duration : 1h 26mn
    Overall bit rate : 2 427 Kbps
    Writing application : VirtualDubMod 1.5.10.2 (build 2540/release)
    Writing library : VirtualDubMod build 2540/release
    Video
    ID : 0
    Format : MPEG-4 Visual
    Format profile : Advanced Simple@L5
    Format settings, BVOP : 1
    Format settings, QPel : No
    Format settings, GMC : No warppoints
    Format settings, Matrix : Custom
    Codec ID : XVID
    Codec ID/Hint : XviD
    Duration : 1h 26mn
    Bit rate : 1 645 Kbps
    Width : 720 pixels
    Height : 400 pixels
    Display aspect ratio : 16:9
    Frame rate : 23.976 fps
    Color space : YUV
    Chroma subsampling : 4:2:0
    Bit depth : 8 bits
    Scan type : Progressive
    Compression mode : Lossy
    Bits/(Pixel*Frame) : 0.238
    Stream size : 1 018 MiB (68%)
    Writing library : XviD 66
    Audio #1
    ID : 1
    Format : AC-3
    Format/Info : Audio Coding 3
    Mode extension : CM (complete main)
    Format settings, Endianness : Big
    Codec ID : 2000
    Duration : 1h 26mn
    Bit rate mode : Constant
    Bit rate : 384 Kbps
    Channel(s) : 6 channels
    Channel positions : Front: L C R, Side: L R, LFE
    Sampling rate : 48.0 KHz
    Compression mode : Lossy
    Stream size : 238 MiB (16%)
    Alignment : Split accross interleaves
    Interleave, duration : 42 ms (1.00 video frame)
    Interleave, preload duratio : 500 ms
    Audio #2
    ID : 2
    Format : AC-3
    Format/Info : Audio Coding 3
    Mode extension : CM (complete main)
    Format settings, Endianness : Big
    Codec ID : 2000
    Duration : 1h 26mn
    Bit rate mode : Constant
    Bit rate : 384 Kbps
    Channel(s) : 6 channels
    Channel positions : Front: L C R, Side: L R, LFE
    Sampling rate : 48.0 KHz
    Compression mode : Lossy
    Stream size : 238 MiB (16%)
    Alignment : Split accross interleaves
    Interleave, duration : 42 ms (1.00 video frame)
    Interleave, preload duratio : 500 ms

    Скриншоты

    Скачать .torrent

    Скачать торрент-файл бесплатно и на максимальной скорости!

    Как скачивать? · Что такое торрент? · Рейтинг и ограничения

    !ВНИМАНИЕ!
    Сайт не распространяет и не хранит электронные версии произведений, а занимается лишь лишь предоставлением доступа к создаваемому пользователями каталогу ссылок на торрент-файлы, которые содержат только списки хеш-сумм, убедительная просьба с жалобами обращаться напрямую к пользователю. Файлы для обмена на трекере предоставлены пользователями сайта, и администрация не несёт ответственности за их содержание. Просьба не заливать файлы, защищенные авторскими правами, а также файлы нелегального содержания!


    _________________
    [Профиль] [ЛС]
    Показать сообщения:    
    Ответить на тему

    Текущее время: Сегодня, в 16:50

    Часовой пояс: GMT + 2



    Вы не можете начинать темы
    Вы не можете отвечать на сообщения
    Вы не можете редактировать свои сообщения
    Вы не можете удалять свои сообщения
    Вы не можете голосовать в опросах
    Вы не можете прикреплять файлы к сообщениям
    Вы не можете скачивать файлы