BitTorrentTracker PerecTracker.org
BitTorrentTracker PerecTracker.org
    
Регистрация  ·  Вход
 
 · 
Забыли пароль?

  • Багровые реки 2: Ангелы апокалипсиса / Les rivières pourpres 2: Les anges de l\'apocalypse (Оливье Даан) [2004, Франция, Италия, Великобритания, боевик, триллер, криминал, BDRip HD (720p), SD] DUB, AVO, Original + SUB (rus,eng)

    Ответить на тему
     
    Автор Сообщение

    rechyn

    Создавать темы 14-Июн-2015 17:54

           

    [Цитировать]

    Багровые реки 2: Ангелы апокалипсиса / Les rivières pourpres 2 - Les anges de l'apocalypse
    "Время не ждет! Через два часа свершится суд!"
    7.084 / 10
    -Год выпуска: 2004
    Страна: Франция, Италия, Великобритания
    Жанр: боевик, триллер, криминал
    Продолжительность: 97 мин.
    Перевод: Профессиональный дублированный перевод и одноголосый закадровый авторский перевод
    Оригинальная аудиодорожка: Есть
    Cубтитры: Русские полные и английские полные
    Режиссёр: Оливье Даан
    Сценарий: Люк Бессон, Жан-Кристоф Гранже
    Продюсер: Люк Бессон, Ален Голдман, Катрин Морисс
    Оператор: Алекс Ламарк
    Композитор: Фрэнки Эллиотт, Колин Таунз
    Художник: Оливье Раукс, Алексис МакКензи Майн, Шаттун
    Монтаж: Ричард Марици
    В ролях: Жан Рено, Бенуа Мажимель, Кристофер Ли, Камилль Натта, Джонни Халлидей, Габриель Лазюр, Огустен Легран, Серж Рябукин, Андре Пенверн, Франсис Рено
    Роли дублировали: Владимир Антоник, Денис Беспалый, Рогволд Суховерко, Лариса Некипелова, Александр Груздев
    Бюджет: €30 000 000
    Сборы в США: $152 148
    Сборы в мире: + $32 000 000 = $32 152 148
    Сборы в России: $1 530 000
    Мировая премьера: 18 февраля 2004
    Премьера (РФ): 15 апреля 2004, Централ Партнершип
    Релиз на DVD: 27 мая 2004, CP-Digital
    Описание: Капитан Пьер Ниман - полицейский. Чертовски хороший полицейский. Один из лучших. Его работа требуется в особенных случаях. Он умный и храбрый, за словом в карман не полезет. Он любит работать один, но зачастую ему требуется напарник, а то и два. Он ненавидит собак, но имеет свою собственную - йоркширского терьера.
    Ему доставляет радость воздать по заслугам бандитам и убийцам, тем более, что они верят в свою безнаказанность, пока не перейдут дорогу Пьеру Ниману. Ниман расследует дело о человеке, замурованном в стену с загадочными знаками. В это время Реда, молодой капитан полиции, находит у дверей церкви полумёртвого двойника Иисуса Христа. Реда полагает, что эта история как-то связана с расследованием Нимана, учеником которого он был в полицейской школе.
    В округе продолжаются убийства: таинственные монахи, обладающие сверхъестественной силой, убивают случайных встречных и исчезают бесследно. При помощи Мари, специалистки по истории религий, Ниман и Реда пытаются найти ответы на все вопросы...-Качество исходника: BD-Remux 1080p (HDClub)
    Качество: BDRip
    Тип: 480p 720p
    Контейнер: m4v
    Видео: 640x360 анаморф 852x360 at 24.000 fps, MPEG-4 AVC, ~1800 kbps avg
    Видео: 1280x542 at 24.000 fps, MPEG-4 AVC, ~5000 kbps avg
    Аудио#1: Russian: 48 kHz, ААС, 2/0 (L,R), ~128.00 / 192.00 kbps avg |Дубляж, CP-Digital|
    Аудио#2: Russian: 48 kHz, ААС, 2/0 (L,R), ~128.00 / 192.00 kbps avg |Одноголосый закадровый, А. Гаврилов|
    Аудио#3: Russian: 48 kHz, ААС, 2/0 (L,R), ~128.00 / 192.00 kbps avg |Одноголосый закадровый, С. Визгунов|
    Аудио#4: Ukrainian: 48 kHz, ААС, 2/0 (L,R), ~128.00 / 192.00 kbps avg |Двухголосый закадровый|
    Аудио#5: French: 48 kHz, ААС, 2/0 (L,R), ~128.00 / 192.00 kbps avg
    Аудио#6: Russian: 48 kHz, AC3, 3/2 (L,C,R,l,r) + LFE ch, ~448.00 kbps avg |Дубляж, CP-Digital|
    Аудио#7: Russian: 48 kHz, AC3, 3/2 (L,C,R,l,r) + LFE ch, ~640.00 kbps avg |Одноголосый закадровый, А. Гаврилов|
    Аудио#8: Russian: 48 kHz, AC3, 3/2 (L,C,R,l,r) + LFE ch, ~640.00 kbps avg |Одноголосый закадровый, С. Визгунов|
    Аудио#9: French: 48 kHz, AC3, 3/2 (L,C,R,l,r) + LFE ch, ~640.00 kbps avg
    Субтитры №1: Russian: |Полные|
    Субтитры №2: English: |Полные|-

    Знаете ли Вы, что...
  • Монастырь снимали в Оверне.
  • Большая часть съемок проходила на исторической линии Мажино в Лотарингии.
  • Исходя из литературной основы первой части сиквел вообще не мог появиться, так как в произведении Гранже «Багровые реки» комиссар Ниманс погибает.
    -

    iTunes Meta Tags for country fr

    Name: Les rivières pourpres 2 : Les anges de l'apocalypse
    Artist: Olivier Dahan
    Genre: Thriller
    Release Date: 2004-02-18T08:00:00Z
    Description: Капитан Пьер Ниман - полицейский. Чертовски хороший полицейский. Один из лучших. Его работа требуется в особенных случаях. Он умный и храбрый, за словом в карман не полезет. Он любит работать один, но зачастую ему требуется напарник, а то и два. Он ненавидит собак, но имеет свою собственную - йоркширского терьера...
    Long Description: Капитан Пьер Ниман - полицейский. Чертовски хороший полицейский. Один из лучших. Его работа требуется в особенных случаях. Он умный и храбрый, за словом в карман не полезет. Он любит работать один, но зачастую ему требуется напарник, а то и два. Он ненавидит собак, но имеет свою собственную - йоркширского терьера.
    Ему доставляет радость воздать по заслугам бандитам и убийцам, тем более, что они верят в свою безнаказанность, пока не перейдут дорогу Пьеру Ниману. Ниман расследует дело о человеке, замурованном в стену с загадочными знаками. В это время Реда, молодой капитан полиции, находит у дверей церкви полумёртвого двойника Иисуса Христа. Реда полагает, что эта история как-то связана с расследованием Нимана, учеником которого он был в полицейской школе.
    В округе продолжаются убийства: таинственные монахи, обладающие сверхъестественной силой, убивают случайных встречных и исчезают бесследно. При помощи Мари, специалистки по истории религий, Ниман и Реда пытаются найти ответы на все вопросы...
    Rating: -12
    Studio: Europa Corp, Légendes entreprisesTF1 Films Productions
    Cast: Жан Рено, Бенуа Мажимель, Кристофер Ли, Камилль Натта, Джонни Халлидей, Габриель Лазюр, Огустен Легран, Серж Рябукин, Андре Пенверн, Франсис Рено
    Director: Оливье Даан
    Producers: Люк Бессон, Ален Голдман, Катрин Морисс
    Screenwriters: Люк Бессон, Жан-Кристоф Гранже
    Copyright: © 2003 STUDIOCANAL - Europacorp - Filmauro
    contentID: 369506134
    XID: Apple:vendor_id:2004-5621
    Sort Name: Les rivières pourpres 2 : Les anges de l'apocalypse

    iTunes Meta Tags for country us

    Name: Crimson Rivers: Angels of the Apocalypse
    Artist: Olivier Dahan
    Genre: Action & Adventure
    Release Date: 2004-02-18T08:00:00Z
    Description: Капитан Пьер Ниман - полицейский. Чертовски хороший полицейский. Один из лучших. Его работа требуется в особенных случаях. Он умный и храбрый, за словом в карман не полезет. Он любит работать один, но зачастую ему требуется напарник, а то и два. Он ненавидит собак, но имеет свою собственную - йоркширского терьера...
    Long Description: Капитан Пьер Ниман - полицейский. Чертовски хороший полицейский. Один из лучших. Его работа требуется в особенных случаях. Он умный и храбрый, за словом в карман не полезет. Он любит работать один, но зачастую ему требуется напарник, а то и два. Он ненавидит собак, но имеет свою собственную - йоркширского терьера.
    Ему доставляет радость воздать по заслугам бандитам и убийцам, тем более, что они верят в свою безнаказанность, пока не перейдут дорогу Пьеру Ниману. Ниман расследует дело о человеке, замурованном в стену с загадочными знаками. В это время Реда, молодой капитан полиции, находит у дверей церкви полумёртвого двойника Иисуса Христа. Реда полагает, что эта история как-то связана с расследованием Нимана, учеником которого он был в полицейской школе.
    В округе продолжаются убийства: таинственные монахи, обладающие сверхъестественной силой, убивают случайных встречных и исчезают бесследно. При помощи Мари, специалистки по истории религий, Ниман и Реда пытаются найти ответы на все вопросы...
    Rating: R
    Rating Annotation: Rated R Non-stop violence, language and some nudity.
    Studio: Filmauro Distribuzione; Legende Enterprises; TF1 Films Productions
    Cast: Жан Рено, Бенуа Мажимель, Кристофер Ли, Камилль Натта, Джонни Халлидей, Габриель Лазюр, Огустен Легран, Серж Рябукин, Андре Пенверн, Франсис Рено
    Director: Оливье Даан
    Producers: Люк Бессон, Ален Голдман, Катрин Морисс
    Screenwriters: Люк Бессон, Жан-Кристоф Гранже
    Copyright: © 2004 StudioLegende, EuropaCorp, TF1 Films Production, Filmauro and Epica Limited. All Rights Reserved.
    contentID: 321638129
    XID: Apple:vendor_id:2004-5621
    Sort Name: Crimson Rivers: Angels of the Apocalypse

    iTunes Meta Tags for country gb

    Name: Crimson Rivers: Angels of the Apocalypse
    Artist: Olivier Dahan
    Genre: Action & Adventure
    Release Date: 2004-02-18T08:00:00Z
    Description: Капитан Пьер Ниман - полицейский. Чертовски хороший полицейский. Один из лучших. Его работа требуется в особенных случаях. Он умный и храбрый, за словом в карман не полезет. Он любит работать один, но зачастую ему требуется напарник, а то и два. Он ненавидит собак, но имеет свою собственную - йоркширского терьера...
    Long Description: Капитан Пьер Ниман - полицейский. Чертовски хороший полицейский. Один из лучших. Его работа требуется в особенных случаях. Он умный и храбрый, за словом в карман не полезет. Он любит работать один, но зачастую ему требуется напарник, а то и два. Он ненавидит собак, но имеет свою собственную - йоркширского терьера.
    Ему доставляет радость воздать по заслугам бандитам и убийцам, тем более, что они верят в свою безнаказанность, пока не перейдут дорогу Пьеру Ниману. Ниман расследует дело о человеке, замурованном в стену с загадочными знаками. В это время Реда, молодой капитан полиции, находит у дверей церкви полумёртвого двойника Иисуса Христа. Реда полагает, что эта история как-то связана с расследованием Нимана, учеником которого он был в полицейской школе.
    В округе продолжаются убийства: таинственные монахи, обладающие сверхъестественной силой, убивают случайных встречных и исчезают бесследно. При помощи Мари, специалистки по истории религий, Ниман и Реда пытаются найти ответы на все вопросы...
    Rating: 15
    Studio: Filmauro Distribuzione; Legende Enterprises; TF1 Films Productions
    Cast: Жан Рено, Бенуа Мажимель, Кристофер Ли, Камилль Натта, Джонни Халлидей, Габриель Лазюр, Огустен Легран, Серж Рябукин, Андре Пенверн, Франсис Рено
    Director: Оливье Даан
    Producers: Люк Бессон, Ален Голдман, Катрин Морисс
    Screenwriters: Люк Бессон, Жан-Кристоф Гранже
    Copyright: © 2004 StudioLegende, EuropaCorp, TF1 Films Production, Filmauro and Epica Limited. All Rights Reserved.
    contentID: 321638129
    XID: Apple:vendor_id:2004-5621
    Sort Name: Crimson Rivers: Angels of the Apocalypse

    MediaInfo 480p Release

    General
    Complete name : Les rivières pourpres 2_ Les anges de l'apocalypse.m4v
    Format : MPEG-4
    Codec ID : M4V
    File size : 1.69 GiB
    Duration : 1h 39mn
    Overall bit rate mode : Variable
    Overall bit rate : 2 437 Kbps
    Movie name : Les rivières pourpres 2: Les anges de l'apocalypse
    Performer : Olivier Dahan
    Director : Оливье Даан
    Actor : Жан Рено / Бенуа Мажимель / Кристофер Ли / Камилль Натта / Джонни Халлидей / Габриель Лазюр / Огустен Легран / Серж Рябукин / Андре Пенверн / Франсис Рено
    Screenplay by : Люк Бессон / Жан-Кристоф Гранже
    Producer : Люк Бессон / Ален Голдман / Катрин Морисс
    Production studio : Europa Corp, Légendes entreprisesTF1 Films Productions
    Genre : Thriller
    ContentType : Short Film
    Description : Капитан Пьер Ниман - полицейский. Чертовски хороший полицейский. Один из лучших. Его работа требуется в особенных случаях. Он умный и храбрый, за словом в карман не полезет. Он любит работать один, но зачастую ему требуется напарник, а то и два. Он ненавидит собак, но имеет свою собственную - йоркширского терьера...
    Recorded date : UTC 2004-02-18 08:00:00
    Encoded date : UTC 2015-06-14 10:47:01
    Tagged date : UTC 2015-06-14 11:52:09
    Copyright : © 2003 STUDIOCANAL - Europacorp - Filmauro
    Cover : Yes
    Rating : None
    Title/Sort : Les rivières pourpres 2
    LongDescription : Капитан Пьер Ниман - полицейский. Чертовски хороший полицейский. Один из лучших. Его работа требуется в особенных случаях. Он умный и храбрый, за словом в карман не полезет. Он любит работать один, но зачастую ему требуется напарник, а то и два. Он ненавидит собак, но имеет свою собственную - йоркширского терьера. / Ему доставляет радость воздать по заслугам бандитам и убийцам, тем более, что они верят в свою безнаказанность, пока не перейдут дорогу Пьеру Ниману. Ниман расследует дело о человеке, замурованном в стену с загадочными знаками. В это время Реда, молодой капитан полиции, находит у дверей церкви полумёртвого двойника Иисуса Христа. Реда полагает, что эта история как-то связана с расследованием Нимана, учеником которого он был в полицейской школе. / В округе продолжаются убийства: таинственные монахи, обладающие сверхъестественной силой, убивают случайных встречных и исчезают бесследно. При помощи Мари, специалистки по истории религий, Ниман и Реда пытаются найти ответы на все вопросы...
    AppleStoreCatalogID : 369506134
    Vendor : Apple:vendor_id:2004-5621
    ContentRating : fr-movie|-12|300|
    Video #1
    ID : 1
    Format : AVC
    Format/Info : Advanced Video Codec
    Format profile : Baseline@L3
    Format settings, CABAC : No
    Format settings, ReFrames : 2 frames
    Codec ID : avc1
    Codec ID/Info : Advanced Video Coding
    Duration : 1h 39mn
    Bit rate : 1 800 Kbps
    Width : 640 pixels
    Height : 360 pixels
    Display aspect ratio : 2.35:1
    Original display aspect ratio : 2.35:1
    Frame rate mode : Variable
    Frame rate : 24.000 fps
    Minimum frame rate : 6.000 fps
    Maximum frame rate : 24.006 fps
    Color space : YUV
    Chroma subsampling : 4:2:0
    Bit depth : 8 bits
    Scan type : Progressive
    Bits/(Pixel*Frame) : 0.326
    Stream size : 1.25 GiB (74%)
    Title : Main Program
    Writing library : x264 core 130 r2273 b3065e6
    Encoding settings : cabac=0 / ref=2 / deblock=1:0:0 / analyse=0x1:0x111 / me=umh / subme=6 / psy=1 / psy_rd=1.00:0.00 / mixed_ref=1 / me_range=16 / chroma_me=1 / trellis=0 / 8x8dct=0 / cqm=0 / deadzone=21,11 / fast_pskip=1 / chroma_qp_offset=-2 / threads=18 / lookahead_threads=2 / sliced_threads=0 / nr=0 / decimate=1 / interlaced=0 / bluray_compat=0 / constrained_intra=0 / bframes=0 / weightp=0 / keyint=240 / keyint_min=24 / scenecut=40 / intra_refresh=0 / rc_lookahead=40 / rc=2pass / mbtree=1 / bitrate=1800 / ratetol=1.0 / qcomp=0.60 / qpmin=0 / qpmax=69 / qpstep=4 / cplxblur=20.0 / qblur=0.5 / vbv_maxrate=5000 / vbv_bufsize=5000 / nal_hrd=none / ip_ratio=1.40 / aq=1:1.00
    Language : French
    Encoded date : UTC 2015-06-14 10:47:01
    Tagged date : UTC 2015-06-14 10:50:05
    Color range : Limited
    Color primaries : BT.709
    Transfer characteristics : BT.709
    Matrix coefficients : BT.709
    Video #2
    ID : 10
    Format : JPEG
    Codec ID : jpeg
    Duration : 1h 39mn
    Bit rate mode : Variable
    Bit rate : 867 bps
    Width : 640 pixels
    Height : 270 pixels
    Display aspect ratio : 2.40:1
    Frame rate mode : Variable
    Frame rate : 0.004 fps
    Minimum frame rate : 0.002 fps
    Maximum frame rate : 0.011 fps
    Color space : YUV
    Chroma subsampling : 4:2:0
    Bit depth : 8 bits
    Compression mode : Lossy
    Bits/(Pixel*Frame) : 1.254
    Stream size : 609 KiB (0%)
    Title : Chapter Images
    Language : French
    Encoded date : UTC 2015-06-14 11:52:01
    Tagged date : UTC 2015-06-14 11:52:02
    Audio #1
    ID : 2
    Format : AAC
    Format/Info : Advanced Audio Codec
    Format profile : LC
    Codec ID : 40
    Duration : 1h 39mn
    Bit rate mode : Variable
    Bit rate : 132 Kbps
    Maximum bit rate : 226 Kbps
    Channel(s) : 2 channels
    Channel positions : Front: L R
    Sampling rate : 48.0 KHz
    Compression mode : Lossy
    Stream size : 93.4 MiB (5%)
    Title : Russian DUB CP-Digital Stereo
    Language : Russian
    Encoded date : UTC 2015-06-14 10:47:01
    Tagged date : UTC 2015-06-14 10:51:10
    Audio #2
    ID : 3
    Format : AAC
    Format/Info : Advanced Audio Codec
    Format profile : LC
    Codec ID : 40
    Duration : 1h 39mn
    Bit rate mode : Variable
    Bit rate : 132 Kbps
    Maximum bit rate : 230 Kbps
    Channel(s) : 2 channels
    Channel positions : Front: L R
    Sampling rate : 48.0 KHz
    Compression mode : Lossy
    Stream size : 93.5 MiB (5%)
    Title : Russian AVO A.Gavrilov Stereo
    Language : Russian
    Encoded date : UTC 2015-06-14 10:47:01
    Tagged date : UTC 2015-06-14 10:51:10
    Audio #3
    ID : 4
    Format : AAC
    Format/Info : Advanced Audio Codec
    Format profile : LC
    Codec ID : 40
    Duration : 1h 39mn
    Bit rate mode : Variable
    Bit rate : 132 Kbps
    Maximum bit rate : 230 Kbps
    Channel(s) : 2 channels
    Channel positions : Front: L R
    Sampling rate : 48.0 KHz
    Compression mode : Lossy
    Stream size : 93.5 MiB (5%)
    Title : Russian AVO S.Vizgunov Stereo
    Language : Russian
    Encoded date : UTC 2015-06-14 10:47:01
    Tagged date : UTC 2015-06-14 10:51:10
    Audio #4
    ID : 5
    Format : AAC
    Format/Info : Advanced Audio Codec
    Format profile : LC
    Codec ID : 40
    Duration : 1h 39mn
    Bit rate mode : Variable
    Bit rate : 100 Kbps
    Maximum bit rate : 206 Kbps
    Channel(s) : 2 channels
    Channel positions : Front: L R
    Sampling rate : 48.0 KHz
    Compression mode : Lossy
    Stream size : 71.0 MiB (4%)
    Title : Ukrainian DVO Stereo
    Language : Ukrainian
    Encoded date : UTC 2015-06-14 10:47:01
    Tagged date : UTC 2015-06-14 10:51:03
    Audio #5
    ID : 6
    Format : AAC
    Format/Info : Advanced Audio Codec
    Format profile : LC
    Codec ID : 40
    Duration : 1h 39mn
    Bit rate mode : Variable
    Bit rate : 132 Kbps
    Maximum bit rate : 232 Kbps
    Channel(s) : 2 channels
    Channel positions : Front: L R
    Sampling rate : 48.0 KHz
    Compression mode : Lossy
    Stream size : 93.5 MiB (5%)
    Title : French Stereo
    Language : French
    Encoded date : UTC 2015-06-14 10:47:01
    Tagged date : UTC 2015-06-14 10:51:13
    Text #1
    ID : 7
    Format : Timed Text
    Muxing mode : sbtl
    Codec ID : tx3g
    Duration : 1h 34mn
    Bit rate mode : Variable
    Bit rate : 63 bps
    Stream size : 43.6 KiB (0%)
    Title : Russian Subtitle
    Language : Russian
    Encoded date : UTC 2015-06-14 11:50:13
    Tagged date : UTC 2015-06-14 11:50:13
    Text #2
    ID : 8
    Format : Timed Text
    Muxing mode : sbtl
    Codec ID : tx3g
    Duration : 1h 34mn
    Bit rate mode : Variable
    Bit rate : 37 bps
    Stream size : 25.3 KiB (0%)
    Title : English Subtitle
    Language : English
    Encoded date : UTC 2015-06-14 11:51:57
    Tagged date : UTC 2015-06-14 11:51:57
    Menu #1
    00:00:00.000 : 1
    00:03:28.165 : 2
    00:05:05.500 : 3
    00:09:30.625 : 4
    00:12:31.000 : 5
    00:18:28.165 : 6
    00:23:50.750 : 7
    00:27:26.165 : 8
    00:33:30.665 : 9
    00:37:00.666 : 10
    00:41:00.916 : 11
    00:44:16.208 : 12
    00:47:53.291 : 13
    00:55:01.500 : 14
    00:59:57.750 : 15
    01:04:54.458 : 16
    01:09:48.166 : 17
    01:12:48.707 : 18
    01:17:34.791 : 19
    01:21:58.041 : 20
    01:26:52.207 : 21
    01:32:43.666 : 22
    01:34:14.541 : 23
    Menu #2
    ID : 9
    Codec ID : text
    Duration : 1h 39mn
    Title : Chapter Titles
    Language : French
    Encoded date : UTC 2015-06-14 11:51:57
    Tagged date : UTC 2015-06-14 11:51:57
    00:00:00.000 : 1
    00:03:28.165 : 2
    00:05:05.500 : 3
    00:09:30.625 : 4
    00:12:31.000 : 5
    00:18:28.165 : 6
    00:23:50.750 : 7
    00:27:26.165 : 8
    00:33:30.665 : 9
    00:37:00.666 : 10
    00:41:00.916 : 11
    00:44:16.208 : 12
    00:47:53.291 : 13
    00:55:01.500 : 14
    00:59:57.750 : 15
    01:04:54.458 : 16
    01:09:48.166 : 17
    01:12:48.707 : 18
    01:17:34.791 : 19
    01:21:58.041 : 20
    01:26:52.207 : 21
    01:32:43.666 : 22
    01:34:14.541 : 23
    Bit rate mode : VBR

    MediaInfo 720p Release

    General
    Complete name : Les rivières pourpres 2_ Les anges de l'apocalypse (HD).m4v
    Format : MPEG-4
    Codec ID : M4V
    File size : 5.76 GiB
    Duration : 1h 39mn
    Overall bit rate mode : Variable
    Overall bit rate : 8 311 Kbps
    Movie name : Les rivières pourpres 2: Les anges de l'apocalypse
    Performer : Olivier Dahan
    Director : Оливье Даан
    Actor : Жан Рено / Бенуа Мажимель / Кристофер Ли / Камилль Натта / Джонни Халлидей / Габриель Лазюр / Огустен Легран / Серж Рябукин / Андре Пенверн / Франсис Рено
    Screenplay by : Люк Бессон / Жан-Кристоф Гранже
    Producer : Люк Бессон / Ален Голдман / Катрин Морисс
    Production studio : Europa Corp, Légendes entreprisesTF1 Films Productions
    Genre : Thriller
    ContentType : Short Film
    Description : Капитан Пьер Ниман - полицейский. Чертовски хороший полицейский. Один из лучших. Его работа требуется в особенных случаях. Он умный и храбрый, за словом в карман не полезет. Он любит работать один, но зачастую ему требуется напарник, а то и два. Он ненавидит собак, но имеет свою собственную - йоркширского терьера...
    Recorded date : UTC 2004-02-18 08:00:00
    Encoded date : UTC 2015-06-14 10:07:47
    Tagged date : UTC 2015-06-14 11:54:02
    Copyright : © 2003 STUDIOCANAL - Europacorp - Filmauro
    Cover : Yes
    Rating : None
    Title/Sort : Les rivières pourpres 2
    LongDescription : Капитан Пьер Ниман - полицейский. Чертовски хороший полицейский. Один из лучших. Его работа требуется в особенных случаях. Он умный и храбрый, за словом в карман не полезет. Он любит работать один, но зачастую ему требуется напарник, а то и два. Он ненавидит собак, но имеет свою собственную - йоркширского терьера. / Ему доставляет радость воздать по заслугам бандитам и убийцам, тем более, что они верят в свою безнаказанность, пока не перейдут дорогу Пьеру Ниману. Ниман расследует дело о человеке, замурованном в стену с загадочными знаками. В это время Реда, молодой капитан полиции, находит у дверей церкви полумёртвого двойника Иисуса Христа. Реда полагает, что эта история как-то связана с расследованием Нимана, учеником которого он был в полицейской школе. / В округе продолжаются убийства: таинственные монахи, обладающие сверхъестественной силой, убивают случайных встречных и исчезают бесследно. При помощи Мари, специалистки по истории религий, Ниман и Реда пытаются найти ответы на все вопросы...
    HDVideo : Yes
    AppleStoreCatalogID : 369506134
    Vendor : Apple:vendor_id:2004-5621
    ContentRating : fr-movie|-12|300|
    Video #1
    ID : 1
    Format : AVC
    Format/Info : Advanced Video Codec
    Format profile : High@L3.1
    Format settings, CABAC : No
    Format settings, ReFrames : 3 frames
    Codec ID : avc1
    Codec ID/Info : Advanced Video Coding
    Duration : 1h 39mn
    Source duration : 1h 39mn
    Bit rate : 5 000 Kbps
    Width : 1 280 pixels
    Height : 542 pixels
    Display aspect ratio : 2.35:1
    Frame rate mode : Variable
    Frame rate : 24.000 fps
    Minimum frame rate : 6.000 fps
    Maximum frame rate : 24.006 fps
    Color space : YUV
    Chroma subsampling : 4:2:0
    Bit depth : 8 bits
    Scan type : Progressive
    Bits/(Pixel*Frame) : 0.300
    Stream size : 3.46 GiB (60%)
    Source stream size : 3.46 GiB (60%)
    Title : Main Program
    Writing library : x264 core 130 r2273 b3065e6
    Encoding settings : cabac=0 / ref=3 / deblock=1:-3:-2 / analyse=0x3:0x113 / me=umh / subme=9 / psy=1 / psy_rd=1.00:0.25 / mixed_ref=1 / me_range=32 / chroma_me=1 / trellis=0 / 8x8dct=1 / cqm=0 / deadzone=21,11 / fast_pskip=0 / chroma_qp_offset=-2 / threads=18 / lookahead_threads=1 / sliced_threads=0 / nr=0 / decimate=0 / interlaced=0 / bluray_compat=0 / constrained_intra=0 / bframes=3 / b_pyramid=0 / b_adapt=2 / b_bias=0 / direct=1 / weightb=0 / open_gop=0 / weightp=0 / keyint=240 / keyint_min=24 / scenecut=40 / intra_refresh=0 / rc_lookahead=40 / rc=2pass / mbtree=1 / bitrate=5000 / ratetol=1.0 / qcomp=0.60 / qpmin=0 / qpmax=69 / qpstep=4 / cplxblur=20.0 / qblur=0.5 / vbv_maxrate=9500 / vbv_bufsize=9500 / nal_hrd=none / ip_ratio=1.40 / aq=1:0.80
    Language : French
    Encoded date : UTC 2015-06-14 10:07:47
    Tagged date : UTC 2015-06-14 10:18:08
    Color range : Limited
    Color primaries : BT.709
    Transfer characteristics : BT.709
    Matrix coefficients : BT.709
    Video #2
    ID : 14
    Format : JPEG
    Codec ID : jpeg
    Duration : 1h 39mn
    Bit rate mode : Variable
    Bit rate : 933 bps
    Width : 640 pixels
    Height : 271 pixels
    Display aspect ratio : 2.35:1
    Frame rate mode : Variable
    Frame rate : 0.004 fps
    Minimum frame rate : 0.002 fps
    Maximum frame rate : 0.011 fps
    Color space : YUV
    Chroma subsampling : 4:2:0
    Bit depth : 8 bits
    Compression mode : Lossy
    Bits/(Pixel*Frame) : 1.345
    Stream size : 655 KiB (0%)
    Title : Chapter Images
    Language : French
    Encoded date : UTC 2015-06-14 11:53:48
    Tagged date : UTC 2015-06-14 11:53:48
    Audio #1
    ID : 2
    Format : AAC
    Format/Info : Advanced Audio Codec
    Format profile : LC
    Codec ID : 40
    Duration : 1h 39mn
    Bit rate mode : Variable
    Bit rate : 197 Kbps
    Maximum bit rate : 339 Kbps
    Channel(s) : 2 channels
    Channel positions : Front: L R
    Sampling rate : 48.0 KHz
    Compression mode : Lossy
    Stream size : 140 MiB (2%)
    Title : Russian DUB CP-Digital Stereo
    Language : Russian
    Encoded date : UTC 2015-06-14 10:07:47
    Tagged date : UTC 2015-06-14 10:19:47
    Audio #2
    ID : 3
    Format : AAC
    Format/Info : Advanced Audio Codec
    Format profile : LC
    Codec ID : 40
    Duration : 1h 39mn
    Bit rate mode : Variable
    Bit rate : 198 Kbps
    Maximum bit rate : 341 Kbps
    Channel(s) : 2 channels
    Channel positions : Front: L R
    Sampling rate : 48.0 KHz
    Compression mode : Lossy
    Stream size : 141 MiB (2%)
    Title : Russian AVO A.Gavrilov Stereo
    Language : Russian
    Encoded date : UTC 2015-06-14 10:07:47
    Tagged date : UTC 2015-06-14 10:19:48
    Audio #3
    ID : 4
    Format : AAC
    Format/Info : Advanced Audio Codec
    Format profile : LC
    Codec ID : 40
    Duration : 1h 39mn
    Bit rate mode : Variable
    Bit rate : 198 Kbps
    Maximum bit rate : 341 Kbps
    Channel(s) : 2 channels
    Channel positions : Front: L R
    Sampling rate : 48.0 KHz
    Compression mode : Lossy
    Stream size : 141 MiB (2%)
    Title : Russian AVO S.Vizgunov Stereo
    Language : Russian
    Encoded date : UTC 2015-06-14 10:07:47
    Tagged date : UTC 2015-06-14 10:19:50
    Audio #4
    ID : 5
    Format : AAC
    Format/Info : Advanced Audio Codec
    Format profile : LC
    Codec ID : 40
    Duration : 1h 39mn
    Bit rate mode : Variable
    Bit rate : 144 Kbps
    Maximum bit rate : 311 Kbps
    Channel(s) : 2 channels
    Channel positions : Front: L R
    Sampling rate : 48.0 KHz
    Compression mode : Lossy
    Stream size : 101 MiB (2%)
    Title : Ukrainian DVO Stereo
    Language : Ukrainian
    Encoded date : UTC 2015-06-14 10:07:47
    Tagged date : UTC 2015-06-14 10:19:52
    Audio #5
    ID : 6
    Format : AAC
    Format/Info : Advanced Audio Codec
    Format profile : LC
    Codec ID : 40
    Duration : 1h 39mn
    Bit rate mode : Variable
    Bit rate : 198 Kbps
    Maximum bit rate : 345 Kbps
    Channel(s) : 2 channels
    Channel positions : Front: L R
    Sampling rate : 48.0 KHz
    Compression mode : Lossy
    Stream size : 141 MiB (2%)
    Title : French Stereo
    Language : French
    Encoded date : UTC 2015-06-14 10:07:47
    Tagged date : UTC 2015-06-14 10:19:55
    Audio #6
    ID : 7
    Format : AC-3
    Format/Info : Audio Coding 3
    Mode extension : CM (complete main)
    Format settings, Endianness : Big
    Codec ID : ac-3
    Duration : 1h 39mn
    Bit rate mode : Constant
    Bit rate : 448 Kbps
    Channel(s) : 6 channels
    Channel positions : Front: L C R, Side: L R, LFE
    Sampling rate : 48.0 KHz
    Bit depth : 16 bits
    Compression mode : Lossy
    Stream size : 318 MiB (5%)
    Title : Russian DUB CP-Digital DD 5.1
    Language : Russian
    Encoded date : UTC 2015-06-14 10:07:47
    Tagged date : UTC 2015-06-14 10:18:49
    Audio #7
    ID : 8
    Format : AC-3
    Format/Info : Audio Coding 3
    Mode extension : CM (complete main)
    Format settings, Endianness : Big
    Codec ID : ac-3
    Duration : 1h 39mn
    Bit rate mode : Constant
    Bit rate : 640 Kbps
    Channel(s) : 6 channels
    Channel positions : Front: L C R, Side: L R, LFE
    Sampling rate : 48.0 KHz
    Bit depth : 16 bits
    Compression mode : Lossy
    Stream size : 454 MiB (8%)
    Title : Russian AVO A.Gavrilov DD 5.1
    Language : Russian
    Encoded date : UTC 2015-06-14 10:07:47
    Tagged date : UTC 2015-06-14 10:18:49
    Audio #8
    ID : 9
    Format : AC-3
    Format/Info : Audio Coding 3
    Mode extension : CM (complete main)
    Format settings, Endianness : Big
    Codec ID : ac-3
    Duration : 1h 39mn
    Bit rate mode : Constant
    Bit rate : 640 Kbps
    Channel(s) : 6 channels
    Channel positions : Front: L C R, Side: L R, LFE
    Sampling rate : 48.0 KHz
    Bit depth : 16 bits
    Compression mode : Lossy
    Stream size : 454 MiB (8%)
    Title : Russian AVO S.Vizgunov DD 5.1
    Language : Russian
    Encoded date : UTC 2015-06-14 10:07:47
    Tagged date : UTC 2015-06-14 10:18:49
    Audio #9
    ID : 10
    Format : AC-3
    Format/Info : Audio Coding 3
    Mode extension : CM (complete main)
    Format settings, Endianness : Big
    Codec ID : ac-3
    Duration : 1h 39mn
    Bit rate mode : Constant
    Bit rate : 640 Kbps
    Channel(s) : 6 channels
    Channel positions : Front: L C R, Side: L R, LFE
    Sampling rate : 48.0 KHz
    Bit depth : 16 bits
    Compression mode : Lossy
    Stream size : 454 MiB (8%)
    Title : French DD 5.1
    Language : French
    Encoded date : UTC 2015-06-14 10:07:47
    Tagged date : UTC 2015-06-14 10:18:49
    Text #1
    ID : 11
    Format : Timed Text
    Muxing mode : sbtl
    Codec ID : tx3g
    Duration : 1h 34mn
    Bit rate mode : Variable
    Bit rate : 63 bps
    Stream size : 43.6 KiB (0%)
    Title : Russian Subtitle
    Language : Russian
    Encoded date : UTC 2015-06-14 11:53:22
    Tagged date : UTC 2015-06-14 11:53:22
    Text #2
    ID : 12
    Format : Timed Text
    Muxing mode : sbtl
    Codec ID : tx3g
    Duration : 1h 34mn
    Bit rate mode : Variable
    Bit rate : 37 bps
    Stream size : 25.3 KiB (0%)
    Title : English Subtitle
    Language : English
    Encoded date : UTC 2015-06-14 11:53:22
    Tagged date : UTC 2015-06-14 11:53:22
    Menu #1
    00:00:00.000 : 1
    00:03:28.165 : 2
    00:05:05.500 : 3
    00:09:30.625 : 4
    00:12:31.000 : 5
    00:18:28.165 : 6
    00:23:50.750 : 7
    00:27:26.165 : 8
    00:33:30.665 : 9
    00:37:00.666 : 10
    00:41:00.916 : 11
    00:44:16.208 : 12
    00:47:53.291 : 13
    00:55:01.500 : 14
    00:59:57.750 : 15
    01:04:54.458 : 16
    01:09:48.166 : 17
    01:12:48.707 : 18
    01:17:34.791 : 19
    01:21:58.041 : 20
    01:26:52.207 : 21
    01:32:43.666 : 22
    01:34:14.541 : 23
    Menu #2
    ID : 13
    Codec ID : text
    Duration : 1h 39mn
    Title : Chapter Titles
    Language : French
    Encoded date : UTC 2015-06-14 11:53:36
    Tagged date : UTC 2015-06-14 11:53:36
    00:00:00.000 : 1
    00:03:28.165 : 2
    00:05:05.500 : 3
    00:09:30.625 : 4
    00:12:31.000 : 5
    00:18:28.165 : 6
    00:23:50.750 : 7
    00:27:26.165 : 8
    00:33:30.665 : 9
    00:37:00.666 : 10
    00:41:00.916 : 11
    00:44:16.208 : 12
    00:47:53.291 : 13
    00:55:01.500 : 14
    00:59:57.750 : 15
    01:04:54.458 : 16
    01:09:48.166 : 17
    01:12:48.707 : 18
    01:17:34.791 : 19
    01:21:58.041 : 20
    01:26:52.207 : 21
    01:32:43.666 : 22
    01:34:14.541 : 23
    Bit rate mode : VBR

    x264 лог 480p Release

    HandBrakeCLI -i "/Les.rivieres.pourpres.2.Les.anges.de.l'apocalypse.1080p.BDRemux.3xRus.Ukr.Fre.HDCLUB/BDMV/STREAM/00000.m2ts" -t 1 -o "Bagrovie.Reki.2.480p.fra.m4v" -f mp4 -I -O -w 640 -l 360 --crop 134:134:2:0 --custom-anamorphic --modulus 8 --pixel-aspect 852:640 -e x264 -b 1800 -2 -a none -x cabac=0:ref=2:me=umh:bframes=0:weightp=0:subq=6:8x8dct=0:trellis=0:vbv-maxrate=5000:vbv-bufsize=5000 --verbose=1
    x264 [info]: frame I:5258  Avg QP:15.56  size: 22224  PSNR Mean Y:48.25 U:53.72 V:55.08 Avg:49.20 Global:47.38
    x264 [info]: frame P:137608 Avg QP:17.79  size:  8880  PSNR Mean Y:45.07 U:48.29 V:48.98 Avg:45.91 Global:45.28
    x264 [info]: mb I  I16..4: 35.6%  0.0% 64.4%
    x264 [info]: mb P  I16..4:  1.5%  0.0%  3.4%  P16..4: 45.7% 24.5% 10.1%  0.0%  0.0%    skip:14.7%
    x264 [info]: coded y,uvDC,uvAC intra: 70.9% 76.6% 59.0% inter: 33.5% 26.7% 8.1%
    x264 [info]: i16 v,h,dc,p: 55% 11% 10% 24%
    x264 [info]: i4 v,h,dc,ddl,ddr,vr,hd,vl,hu: 27% 13% 19%  7%  8%  8%  6%  7%  5%
    x264 [info]: i8c dc,h,v,p: 54% 16% 21%  9%
    x264 [info]: ref P L0: 74.1% 25.9%
    x264 [info]: SSIM Mean Y:0.9832258 (17.754db)
    x264 [info]: PSNR Mean Y:45.189 U:48.489 V:49.206 Avg:46.029 Global:45.341 kb/s:1799.17

    x264 лог 720p Release

    HandBrakeCLI -i "/Les.rivieres.pourpres.2.Les.anges.de.l'apocalypse.1080p.BDRemux.3xRus.Ukr.Fre.HDCLUB/BDMV/STREAM/00000.m2ts" -t 1 -o "Bagrovie.Reki.2.720p.fra.m4v" -f mp4 -4 -O -w 1280 -l 542 --crop 134:134:2:0 --modulus 2 -e x264 -b 5000 -2 -a none -x cabac=0:ref=3:me=umh:b-pyramid=none:b-adapt=2:weightb=0:trellis=0:weightp=0:vbv-maxrate=9500:vbv-bufsize=9500:subq=9:merange=32:deblock=-3,-2:qcomp=0.60:qpmin=0:qpmax=69:fast_pskip=0:aq-strength=0.8:no-dct-decimate=1:psy-rd=1.00,0.25 --verbose=1
    x264 [info]: frame I:1241  Avg QP:15.22  size:107107  PSNR Mean Y:48.07 U:50.63 V:51.56 Avg:48.83 Global:48.47
    x264 [info]: frame P:49215 Avg QP:17.43  size: 41469  PSNR Mean Y:46.04 U:49.54 V:50.67 Avg:46.97 Global:46.42
    x264 [info]: frame B:92410 Avg QP:19.75  size: 16684  PSNR Mean Y:44.66 U:48.81 V:50.24 Avg:45.70 Global:45.12
    x264 [info]: consecutive B-frames:  2.8% 16.1% 50.4% 30.7%
    x264 [info]: mb I  I16..4:  8.0% 64.7% 27.3%
    x264 [info]: mb P  I16..4:  3.2% 11.0%  3.3%  P16..4: 41.1% 23.0% 10.8%  0.0%  0.0%    skip: 7.6%
    x264 [info]: mb B  I16..4:  0.3%  2.2%  0.6%  B16..8: 44.9% 11.6%  2.3%  direct: 8.3%  skip:29.7%  L0:40.8% L1:49.2% BI:10.0%
    x264 [info]: 8x8 transform intra:64.9% inter:45.7%
    x264 [info]: coded y,uvDC,uvAC intra: 83.5% 77.8% 55.7% inter: 34.7% 24.8% 10.0%
    x264 [info]: i16 v,h,dc,p: 56% 17%  9% 17%
    x264 [info]: i8 v,h,dc,ddl,ddr,vr,hd,vl,hu:  7%  8%  6% 12% 16% 14% 15% 11% 11%
    x264 [info]: i4 v,h,dc,ddl,ddr,vr,hd,vl,hu:  7%  7%  4% 13% 19% 15% 15% 11% 10%
    x264 [info]: i8c dc,h,v,p: 51% 18% 18% 12%
    x264 [info]: ref P L0: 67.9% 19.7% 12.4%
    x264 [info]: ref B L0: 82.5% 17.5%
    x264 [info]: SSIM Mean Y:0.9788030 (16.737db)
    x264 [info]: PSNR Mean Y:45.167 U:49.078 V:50.399 Avg:46.164 Global:45.551 kb/s:4993.21

    Скриншоты 480p Release

    Скриншоты 720p Release

    Цитата:
    Цитата:

    • Сохранены оригинальные главы как на Blu-ray.
    • Дорожки №2-3 получены наложением чистого голоса на центр декодированного DTS-HD MA.
    • За исходник украинской дорожки благодарим ресурс hurtom.
    -

    Релиз подготовлен для просмотра на Apple TV, iPad, iPhone, iPod Touch.
    Для просмотра данного релиза на компьютере с ОС Windows рекомендуется использовать VLC media player
    Скачать .torrent

    Скачать торрент-файл бесплатно и на максимальной скорости!

    Как скачивать? · Что такое торрент? · Рейтинг и ограничения

    !ВНИМАНИЕ!
    Сайт не распространяет и не хранит электронные версии произведений, а занимается лишь лишь предоставлением доступа к создаваемому пользователями каталогу ссылок на торрент-файлы, которые содержат только списки хеш-сумм, убедительная просьба с жалобами обращаться напрямую к пользователю. Файлы для обмена на трекере предоставлены пользователями сайта, и администрация не несёт ответственности за их содержание. Просьба не заливать файлы, защищенные авторскими правами, а также файлы нелегального содержания!


  • _________________
    [Профиль] [ЛС]
    Показать сообщения:    
    Ответить на тему

    Текущее время: Сегодня, в 14:24

    Часовой пояс: GMT + 2



    Вы не можете начинать темы
    Вы не можете отвечать на сообщения
    Вы не можете редактировать свои сообщения
    Вы не можете удалять свои сообщения
    Вы не можете голосовать в опросах
    Вы не можете прикреплять файлы к сообщениям
    Вы не можете скачивать файлы