Register  ·  Log in
Forgot password?

  • Она / Her (Спайк Джонс / Spike Jonze) [2013 г., США, мелодрама, драма, фантастика, HDRip] Dub

    Reply to topic
    Author Message


    Post 14-Jun-2015 18:54



    -Она / Her--Год выпуска: 2013Страна: СШАЖанр: мелодрама, драма, фантастика-Продолжительность: 02:05:50Перевод: Профессиональный (дублированный) [лицензия]Субтитры: (русские, английские)--Режиссер:Спайк Джонс / Spike Jonze-В ролях:Хоакин Феникс, Эми Адамс, Руни Мара, Оливия Уайлд, Скарлетт Йоханссон, Линн А. Фридман, Лиза Рени Питтс, Гейб Гомез, Крис Прэтт, Артт Батлер, Мэй Линдстрём, Билл Хейдер, Кристен Уиг, Брайан Джонсон, Мэтт Летчер, Спайк Джонс и др.-Описание:
    Теодор — одинокий писатель, покупает новую техническую разработку — операционную систему, призванную исполнять любое желание пользователя. К удивлению Теодора, вскоре между ним и операционной системой возникает роман.
    --Дополнительная информация:-
    -Сэмпл Рип совместим с бытовыми DVD-проигрывателями.--Качество видео: HDRip (Исходник: BDRip 720p)
    Формат видео: AVI
    Видео: XviD build 73, 656x352 (2.39:1), 23.976 fps, ~712 kbps avg, 0.129 bit/pixel
    Аудио: MPEG Layer 3, 2 ch, 48 kHz, 112.00 kbps avg (Dub)-Скриншоты

    Скриншот с названием


    Complete name :\Ona(Her)_(2013).HDRip.mp3.Dub_[All.Films][RG].avi
    Format : AVI
    Format/Info : Audio Video Interleave
    File size : 750 MiB
    Duration : 2h 5mn
    Overall bit rate : 834 Kbps
    Movie name : Она / Her (2013) HDRip | <VIRUS> [][All.Films][RG]
    Director : <VIRUS> []
    Writing application : VirtualDubMod | || (build 2550/release)
    Copyright : []
    ID : 0
    Format : MPEG-4 Visual
    Format profile : Advanced Simple@L5
    Format settings, BVOP : 2
    Format settings, QPel : No
    Format settings, GMC : No warppoints
    Format settings, Matrix : Custom
    Codec ID : XVID
    Codec ID/Hint : XviD
    Duration : 2h 5mn
    Bit rate : 712 Kbps
    Width : 656 pixels
    Height : 352 pixels
    Display aspect ratio : 1.85:1
    Frame rate : 23.976 fps
    Color space : YUV
    Chroma subsampling : 4:2:0
    Bit depth : 8 bits
    Scan type : Progressive
    Compression mode : Lossy
    Bits/(Pixel*Frame) : 0.129
    Stream size : 641 MiB (85%)
    Writing library : XviD 73
    ID : 1
    Format : MPEG Audio
    Format version : Version 1
    Format profile : Layer 3
    Codec ID : 55
    Codec ID/Hint : MP3
    Duration : 2h 5mn
    Bit rate mode : Constant
    Bit rate : 112 Kbps
    Channel(s) : 2 channels
    Sampling rate : 44.1 KHz
    Compression mode : Lossy
    Stream size : 101 MiB (13%)
    Alignment : Split accross interleaves
    Interleave, duration : 42 ms (1.00 video frame)
    Interleave, preload duratio : 500 ms
    Writing library : LAME3.99r
    Encoding settings : -m s -V 4 -q 0 -lowpass 15.6 -b 112
    Download .torrent

    Download free and at maximum speed!

    How to Download? · What is a torrent? · Ratings and Limitations

    The site does not extend and does not store electronic(digital) versions of products, and only gives access to a reference catalogue created by users on torrent-files which contain only lists of the hash-sums, the earnest entreaty, with complaints(abuse) to access directly to the user. Files for an exchange on tracker are given by users of a site, and the administration does not bear the responsibility for their maintenance. The request to not fill in the files protected by copyrights, and also files of the illegal maintenance!

    [Profile] [PM]
    Display posts from previous:    
    Reply to topic

    The time now is: Today 01:00

    All times are GMT + 3 Hours

    You cannot post new topics in this forum
    You cannot reply to topics in this forum
    You cannot edit your posts in this forum
    You cannot delete your posts in this forum
    You cannot vote in polls in this forum
    You cannot attach files in this forum
    You cannot download files in this forum