BitTorrentTracker PerecTracker.org
BitTorrentTracker PerecTracker.org
    
Регистрация  ·  Вход
 
 · 
Забыли пароль?

  • Дикая семейка Торнберри / The Wild Thornberrys Movie (Кэти Малкасиан, Джефф МакГрат / Cathy Malkasian, Jeff McGrath) [2002, мультфильм, фэнтези, комедия, приключения, семейный, WEB-DLRip] 2xDUB + MVO + DVO + VO

    Ответить на тему
     
    Автор Сообщение

    rechyn

    Создавать темы 14-Июн-2015 05:18

           

    [Цитировать]

    Дикая семейка Торнберри
    The Wild Thornberrys Movie
    «This Could Be The Beginning Of A Beautiful Adventure»
    Страна: США
    Жанр: мультфильм, фэнтези, комедия, приключения, семейный
    Продолжительность: 01:25:21
    Год выпуска: 2002-Перевод: Профессиональный (Дублированный) CTC
    Перевод: Профессиональный (Дублированный) ТНТ
    Перевод: Профессиональный (Многоголосый закадровый)
    Перевод: Профессиональный (Двухголосый закадровый) П.Гланц и Н.Казакова
    Перевод: Одноголосый закадровый Е.Рудой
    Русские субтитры: нет
    Режиссёр: Кэти Малкасиан, Джефф МакГрат / Cathy Malkasian, Jeff McGrath-Роли озвучивали: Лейси Чаберт, Том Кэйн, Кри Саммер, Тим Карри, Линн Редгрейв, Джоди Карлайл, Даниэль Харрис, Фли, Кристал Скейлс, Кимберли Брукс-Описание: Этот мультфильм рассказывает историю мультяшного семейства, которое путешествует по всему миру. Двенадцатилетняя Элиза попадает в Африку, где встречает таинственного шамана, который дарит ей возможность разговаривать с животными. Но существует одно правило — чтобы не потерять этот волшебный дар, девочка не должна никому о нем рассказывать!
    Однажды Элиза узнает, что браконьеры планируют уничтожать стадо слонов и решает помочь бедным животным при помощи ее верных друзей: Дарвина и ее домашнего животного Чимпа.-Релиз:
    | | -• Большое спасибо xfiles и Lexa1988-L1 за предоставление звуковых дорожек
    • Покупка, работа с WEB-DL и звуком-Azureus--Качество: WEB-DLRip
    Формат: AVI
    Видео: 688x288 (2.39:1), 23,976 fps, XviD 66 ~1 088 kbps avg, 0.23 bit/pixel
    Аудио: 48.0 kHz, MPEG Layer 3, 2/0 (L,R) ch, ~128 kbps |DUB ~ СТС
    Аудио: 48.0 kHz, MPEG Layer 3, 2/0 (L,R) ch, ~128 kbps |DUB ~ THT| отдельно
    Аудио: 48.0 kHz, MPEG Layer 3, 2/0 (L,R) ch, ~128 kbps |MVO | отдельно
    Аудио: 48.0 kHz, MPEG Layer 3, 2/0 (L,R) ch, ~128 kbps |DVO | отдельно
    Аудио: 48.0 kHz, MPEG Layer 3, 2/0 (L,R) ch, ~128 kbps |VO | отдельно
    Субтитры: отсутствуют

    MI


    General
    Complete name : D:\The.Wild.Thornberrys.Movie.2002.WEB-DLRip\The Wild Thornberrys Movie.2002.WEB-DLRip.avi
    Format : AVI
    Format/Info : Audio Video Interleave
    File size : 748 MiB
    Duration : 1h 25mn
    Overall bit rate : 1 225 Kbps
    Writing application : VirtualDubMod 1.5.10.2 (build 2540/release)
    Writing library : VirtualDubMod build 2540/release
    Video
    ID : 0
    Format : MPEG-4 Visual
    Format profile : Advanced Simple@L5
    Format settings, BVOP : 1
    Format settings, QPel : No
    Format settings, GMC : No warppoints
    Format settings, Matrix : Custom
    Codec ID : XVID
    Codec ID/Hint : XviD
    Duration : 1h 25mn
    Bit rate : 1 088 Kbps
    Width : 688 pixels
    Height : 288 pixels
    Display aspect ratio : 2.40:1
    Frame rate : 23.976 fps
    Color space : YUV
    Chroma subsampling : 4:2:0
    Bit depth : 8 bits
    Scan type : Progressive
    Compression mode : Lossy
    Bits/(Pixel*Frame) : 0.229
    Stream size : 664 MiB (89%)
    Writing library : XviD 66
    Audio
    ID : 1
    Format : MPEG Audio
    Format version : Version 1
    Format profile : Layer 3
    Codec ID : 55
    Codec ID/Hint : MP3
    Duration : 1h 25mn
    Bit rate mode : Constant
    Bit rate : 128 Kbps
    Channel(s) : 2 channels
    Sampling rate : 48.0 KHz
    Compression mode : Lossy
    Stream size : 78.0 MiB (10%)
    Alignment : Aligned on interleaves
    Interleave, duration : 42 ms (1.00 video frame)
    Interleave, preload duratio : 504 ms

    Скриншоты


    _________________
    [Профиль] [ЛС]
    Показать сообщения:    
    Ответить на тему

    Текущее время: Сегодня, в 22:43

    Часовой пояс: GMT + 2



    Вы не можете начинать темы
    Вы не можете отвечать на сообщения
    Вы не можете редактировать свои сообщения
    Вы не можете удалять свои сообщения
    Вы не можете голосовать в опросах
    Вы не можете прикреплять файлы к сообщениям
    Вы не можете скачивать файлы