BitTorrentTracker PerecTracker.org
BitTorrentTracker PerecTracker.org
    
Регистрация  ·  Вход
 
 · 
Забыли пароль?

  • Красавица и чудовище / La belle et la bête (Кристоф Ганс / Christophe Gans) [2014, Франция, Германия, США, фэнтези, мелодрама, BDRip-AVC] Dub (IPTV)

    Ответить на тему
     
    Автор Сообщение

    Light

    Создавать темы 14-Июн-2015 01:06

           

    [Цитировать]

    Красавица и чудовище
    La belle et la bête

    Страна: Франция, Германия, США
    Жанр: фэнтези, мелодрама
    Год выпуска: 2014
    Продолжительность: 1:53:05
    Перевод: Профессиональный (дублированный) IPTV
    Cубтитры: нет
    Режиссер: Кристоф Ганс / Christophe Gans
    В ролях: Леа Сейду, Венсан Кассель, Андре Дюссолье, Эдуардо Норьега, Мириам Шарленс, Одри Лами, Сара Жиродо, Жонатан Демурже, Николя Гоб, Лука Мельява
    Описание: Дочь купца, смелая и отважная Белль, отправляется в замок чудовища, чтобы спасти жизнь своего отца. Очутившись в замке, Белль попадает в потусторонний мир волшебства, фантастических приключений и загадочной меланхолии.
    Оказывается, что наводившее ужас на всю округу чудовище очень несчастно, а в его груди бьется доброе сердце. Белль все больше проникается симпатией к своему ужасному господину.
    Благодаря пылкому сердцу и храбрости, она преодолевает все опасности, чтобы снять зловещие чары с чудовища. Но это произойдет, только если его сможет полюбить прекрасная девушка.
    Сэмпл: скачать
    Качество видео: BDRip-AVC [Blu-ray Disc -BLUEBIRD]
    Формат видео: MKV
    Видео: AVC, 720 x 304 (2,40:1), 1467 kbps, 24,000 fps, 0.279 bpp
    Аудио: AC3, 6ch, 48 kHz, 384 kbps, 16 bit

    MediaInfo

    Уникальный идентификатор : 202581736140693300462712327944590387166 (0x9867D2BC0D128246A34610F483DCE7DE)
    Полное имя : F:\Films\Krasav\La__belle.mkv
    Формат : Matroska
    Версия формата : Version 4 / Version 2
    Размер файла : 1,46 Гбайт
    Продолжительность : 1 ч. 53 м.
    Общий поток : 1852 Кбит/сек
    Дата кодирования : UTC 2015-06-13 03:02:12
    Программа кодирования : mkvmerge v7.7.0 ('Six Voices') 64bit built on Feb 28 2015 23:39:33
    Библиотека кодирования : libebml v1.3.1 + libmatroska v1.4.2
    _STATISTICS_WRITING_APP : mkvmerge v7.7.0 ('Six Voices') 64bit built on Feb 28 2015 23:39:33
    _STATISTICS_WRITING_DATE_UTC : 2015-06-13 03:02:12
    _STATISTICS_TAGS : BPS DURATION NUMBER_OF_FRAMES NUMBER_OF_BYTES
    DURATION : 01:53:05.088000000
    NUMBER_OF_FRAMES : 212034
    NUMBER_OF_BYTES : 325684224
    Видео
    Идентификатор : 1
    Формат : AVC
    Формат/Информация : Advanced Video Codec
    Профиль формата : High@L4.1
    Параметр CABAC формата : Да
    Параметр ReFrames формата : 9 кадров
    Идентификатор кодека : V_MPEG4/ISO/AVC
    Продолжительность : 1 ч. 53 м.
    Битрейт : 1467 Кбит/сек
    Ширина : 720 пикселей
    Высота : 304 пикселя
    Соотношение сторон : 2,40:1
    Режим частоты кадров : Постоянный
    Частота кадров : 24,000 кадра/сек
    Цветовое пространство : YUV
    Субдискретизация насыщенности : 4:2:0
    Битовая глубина : 8 бит
    Тип развёртки : Прогрессивная
    Бит/(Пиксели*Кадры) : 0.279
    Размер потока : 1,13 Гбайт (77%)
    Библиотека кодирования : x264 core 142 r2431 ac76440
    Настройки программы : cabac=1 / ref=9 / deblock=1:-2:-1 / analyse=0x3:0x133 / me=umh / subme=9 / psy=1 / psy_rd=1.00:0.05 / mixed_ref=0 / me_range=38 / chroma_me=1 / trellis=2 / 8x8dct=1 / cqm=0 / deadzone=21,11 / fast_pskip=0 / chroma_qp_offset=-3 / threads=3 / lookahead_threads=1 / sliced_threads=0 / nr=0 / decimate=0 / interlaced=0 / bluray_compat=0 / constrained_intra=0 / bframes=12 / b_pyramid=2 / b_adapt=2 / b_bias=0 / direct=1 / weightb=1 / open_gop=0 / weightp=2 / keyint=240 / keyint_min=24 / scenecut=40 / intra_refresh=0 / rc_lookahead=60 / rc=2pass / mbtree=0 / bitrate=1467 / ratetol=1.0 / qcomp=0.70 / qpmin=10 / qpmax=69 / qpstep=4 / cplxblur=20.0 / qblur=0.5 / vbv_maxrate=50000 / vbv_bufsize=62500 / nal_hrd=none / filler=0 / ip_ratio=1.40 / pb_ratio=1.30 / aq=2:1.00
    Default : Да
    Forced : Нет
    Аудио
    Идентификатор : 2
    Формат : AC-3
    Формат/Информация : Audio Coding 3
    Расширение режима : CM (complete main)
    Параметр Endianness формата : Big
    Идентификатор кодека : A_AC3
    Продолжительность : 1 ч. 53 м.
    Вид битрейта : Постоянный
    Битрейт : 384 Кбит/сек
    Каналы : 6 каналов
    Расположение каналов : Front: L C R, Side: L R, LFE
    Частота : 48,0 КГц
    Битовая глубина : 16 бит
    Метод сжатия : С потерями
    Размер потока : 311 Мбайт (21%)
    Заголовок : Русский дублированный
    Язык : Russian
    Default : Да
    Forced : Нет
    Меню
    00:00:00.000 : en:00:00:00.000
    00:03:19.083 : en:00:03:19.083
    00:06:48.417 : en:00:06:48.417
    00:11:21.375 : en:00:11:21.375
    00:17:08.583 : en:00:17:08.583
    00:28:11.333 : en:00:28:11.333
    00:31:36.125 : en:00:31:36.125
    00:37:27.458 : en:00:37:27.458
    00:44:22.750 : en:00:44:22.750
    00:51:00.500 : en:00:51:00.500
    00:53:44.417 : en:00:53:44.417
    01:04:05.167 : en:01:04:05.167
    01:10:16.000 : en:01:10:16.000
    01:16:07.708 : en:01:16:07.708
    01:22:10.500 : en:01:22:10.500
    01:26:00.125 : en:01:26:00.125
    01:28:07.667 : en:01:28:07.667
    01:33:15.375 : en:01:33:15.375
    01:41:54.792 : en:01:41:54.792
    01:45:26.833 : en:01:45:26.833

    Скриншот c названием фильма

    Скриншоты

    Награды

    Сезар, 2015 год
    Победитель : Лучшие декорации
    Номинации : Лучшая работа оператора, Лучшие костюмы
    Европейская киноакадемия, 2014 год
    Номинации : Приз зрительских симпатий

    Возраст

    12+ - зрителям, достигшим 12 лет
    Скачать .torrent

    Скачать торрент-файл бесплатно и на максимальной скорости!

    Как скачивать? · Что такое торрент? · Рейтинг и ограничения

    !ВНИМАНИЕ!
    Сайт не распространяет и не хранит электронные версии произведений, а занимается лишь лишь предоставлением доступа к создаваемому пользователями каталогу ссылок на торрент-файлы, которые содержат только списки хеш-сумм, убедительная просьба с жалобами обращаться напрямую к пользователю. Файлы для обмена на трекере предоставлены пользователями сайта, и администрация не несёт ответственности за их содержание. Просьба не заливать файлы, защищенные авторскими правами, а также файлы нелегального содержания!


    _________________
    [Профиль] [ЛС]
    Показать сообщения:    
    Ответить на тему

    Текущее время: Сегодня, в 04:20

    Часовой пояс: GMT + 2



    Вы не можете начинать темы
    Вы не можете отвечать на сообщения
    Вы не можете редактировать свои сообщения
    Вы не можете удалять свои сообщения
    Вы не можете голосовать в опросах
    Вы не можете прикреплять файлы к сообщениям
    Вы не можете скачивать файлы