BitTorrentTracker PerecTracker.org
BitTorrentTracker PerecTracker.org
    
Регистрация  ·  Вход
 
 · 
Забыли пароль?

  • Вдалеке от людей / Loin des hommes / Far from Men (Давид Эльхоффен / David Oelhoffen) [2014, Франция, Драма, военный, DVDRip] + Sub Rus + Original Fre

    Ответить на тему
     
    Автор Сообщение

    Light

    Создавать темы 13-Июн-2015 20:54

           

    [Цитировать]

    Вдалеке от людей / Loin des hommes / Far from Men
    Страна: Франция
    Жанр: Драма, военный
    Год выпуска: 2014
    Продолжительность: 01:41:31
    Перевод: Субтитры: creo140
    Cубтитры: русские
    Оригинальная аудиодорожка: французский
    Режиссер: Давид Эльхоффен / David Oelhoffen
    В ролях: Вигго Мортенсен, Реда Катеб, Джамел Барек, Венсан Мартен, Николас Жиро, Жан-Жером Эспозито, Ян Говен, Антуан Режан, Соня Амори
    Описание: Фильм «Вдалеке от людей» (Loin des hommes) переносит действие в 1954 год, в начало Алжирской войны. Дару (Вигго Мортенсен), французскому учителю из маленькой деревушки, затерянной в горах Атлас, жандармерия поручает отвести обвиняемого в убийстве в ближайший город, чтобы там передать властям. Но Дару не нравится идея поездки.
    К неожиданности самого учителя, заключенный, молодой алжирец Мохамед (Реда Катеб), сам хочет, чтобы его отвезли к властям. Преследуемые всадниками, исповедующими закон кровной мести, герои драмы «Вдалеке от людей» отправляются в непростой путь через горы…
    Доп. информация:

    (Score) Вдалеке от людей / Loin Des Hommes (Nick Cave & Warren Ellis) - 2015, MP3, 320 kbps
    http://perectracker.org/viewtopic.php?t=5008794
    Сэмпл: http://multi-up.com/1053163
    Качество видео: DVDRip
    Формат видео: AVI
    Видео: Xvid 720x304 24fps 1468kbps
    Аудио: Dolby AC3 48000Hz 6ch 448kbps
    Формат субтитров: softsub (SRT)

    Награды

    Венецианский кинофестиваль, 2014 год
    Победитель (3):
    Приз Всемирной католической ассоциации по коммуникациям (SIGNIS).
    Международная премия.
    Премия «Arca Cinemagiovani Award» за лучший фильм по версии молодёжного жюри.

    Фрагмент субтитров

    362
    01:04:22,476 --> 01:04:23,872
    Упокой, Господи, её душу.
    363
    01:04:28,964 --> 01:04:30,264
    Да.
    364
    01:05:44,580 --> 01:05:45,979
    У нас есть заложник.
    365
    01:05:47,080 --> 01:05:49,090
    Прекратите огонь или мы пристрелим его!
    366
    01:05:51,185 --> 01:05:52,930
    Прекратите стрелять!
    367
    01:05:52,931 --> 01:05:55,645
    Подойдёте ближе и мы убьём его!
    368
    01:06:01,026 --> 01:06:02,397
    Мы хотим его увидеть!
    369
    01:06:04,197 --> 01:06:05,567
    Покажите нам его!
    370
    01:06:08,790 --> 01:06:10,180
    Покажите нам своего заложника!
    371
    01:06:12,270 --> 01:06:13,380
    Иди, покажись!
    372
    01:06:13,400 --> 01:06:15,980
    Подойди ко входу в пещеру
    и возвращайся.
    373
    01:06:15,981 --> 01:06:17,313
    Иди!
    374
    01:06:18,710 --> 01:06:20,285
    Покажите нам заложника!
    375
    01:06:23,490 --> 01:06:26,430
    Один лишний шаг и мы убьём тебя!
    376
    01:07:21,250 --> 01:07:22,610
    Много их там?
    377
    01:07:23,400 --> 01:07:24,735
    Я не видел.
    378
    01:07:24,736 --> 01:07:26,469
    Выходите по одному.
    379
    01:07:27,169 --> 01:07:29,827
    Руки за голову.
    Мы ничего вам не сделаем!
    380
    01:07:30,820 --> 01:07:32,980
    У вас есть минута!
    381
    01:07:34,100 --> 01:07:35,820
    Убирайтесь отсюда
    или мы пристрелим его!

    MediaInfo

    Формат : AVI
    Формат/Информация : Audio Video Interleave
    Размер файла : 1,37 Гбайт
    Продолжительность : 1 ч. 41 м.
    Общий поток : 1926 Кбит/сек
    Программа кодирования : VirtualDubMod 1.5.10.2 Fr | www.trad-fr.com || (build 2540/release)
    Библиотека кодирования : VirtualDubMod build 2540/release
    Видео
    Идентификатор : 0
    Формат : MPEG-4 Visual
    Профиль формата : Advanced Simple@L5
    Параметр BVOP формата : 1
    Параметр QPel формата : Нет
    Параметр GMC формата : Без точки перехода
    Параметр матрицы формата : Default (H.263)
    Режим смешивания : Сжатый битовый поток
    Идентификатор кодека : XVID
    Идентификатор кодека/Подсказка : XviD
    Продолжительность : 1 ч. 41 м.
    Битрейт : 1469 Кбит/сек
    Ширина : 720 пикселей
    Высота : 304 пикселя
    Соотношение сторон : 2,35:1
    Частота кадров : 24,000 кадра/сек
    Цветовое пространство : YUV
    Субдискретизация насыщенности : 4:2:0
    Битовая глубина : 8 бит
    Тип развёртки : Прогрессивная
    Метод сжатия : С потерями
    Бит/(Пиксели*Кадры) : 0.280
    Размер потока : 1,04 Гбайт (76%)
    Библиотека кодирования : XviD 1.2.1 (UTC 2008-12-04)
    Аудио
    Идентификатор : 1
    Формат : AC-3
    Формат/Информация : Audio Coding 3
    Расширение режима : CM (complete main)
    Параметр Endianness формата : Big
    Идентификатор кодека : 2000
    Продолжительность : 1 ч. 41 м.
    Вид битрейта : Постоянный
    Битрейт : 448 Кбит/сек
    Каналы : 6 каналов
    Расположение каналов : Front: L C R, Side: L R, LFE
    Частота : 48,0 КГц
    Битовая глубина : 16 бит
    Метод сжатия : С потерями
    Размер потока : 325 Мбайт (23%)
    Выравнивание : Разделение по промежуткам
    Продолжительность промежутка : 42 мс. (1,00 видеокадр)
    Время предзагрузки промежутка : 500 мс.

    Скриншот c названием фильма

    Скриншоты


    Скачать .torrent

    Скачать торрент-файл бесплатно и на максимальной скорости!

    Как скачивать? · Что такое торрент? · Рейтинг и ограничения

    !ВНИМАНИЕ!
    Сайт не распространяет и не хранит электронные версии произведений, а занимается лишь лишь предоставлением доступа к создаваемому пользователями каталогу ссылок на торрент-файлы, которые содержат только списки хеш-сумм, убедительная просьба с жалобами обращаться напрямую к пользователю. Файлы для обмена на трекере предоставлены пользователями сайта, и администрация не несёт ответственности за их содержание. Просьба не заливать файлы, защищенные авторскими правами, а также файлы нелегального содержания!


    _________________
    [Профиль] [ЛС]
    Показать сообщения:    
    Ответить на тему

    Текущее время: Сегодня, в 04:15

    Часовой пояс: GMT + 2



    Вы не можете начинать темы
    Вы не можете отвечать на сообщения
    Вы не можете редактировать свои сообщения
    Вы не можете удалять свои сообщения
    Вы не можете голосовать в опросах
    Вы не можете прикреплять файлы к сообщениям
    Вы не можете скачивать файлы