BitTorrentTracker PerecTracker.org
BitTorrentTracker PerecTracker.org
    
Регистрация  ·  Вход
 
 · 
Забыли пароль?

  • Да здравствует Италия! / Viva l’Italia! (Массимилиано Бруно / Massimiliano Bruno) [2012, Италия, комедия, DVDRip] VO (Игорь Головин) + Sub Rus + Original Ita

    Ответить на тему
     
    Автор Сообщение

    Light

    Создавать темы 13-Июн-2015 20:54

           

    [Цитировать]

    Да здравствует Италия! / Viva l’Italia!
    Страна: Италия
    Жанр: комедия
    Год выпуска: 2012
    Продолжительность: 01:48:00
    Перевод: одноголосый закадровый (Игорь Головин по переводу ladySpais)
    Cубтитры: русские, отключаемые
    Оригинальная аудиодорожка: итальянский
    Режиссер: Массимилиано Бруно / Massimiliano Bruno
    В ролях: Микеле Плачидо (Michele Placido), Рауль Бова (Raoul Bova), Амбра Анджолини (Ambra Angiolini), Эдоардо Лео (Edoardo Leo), Алессандро Газман (Alessandro Gassman), Маурицио Маттиоли (Maurizio Mattioli), Рокко Папалео (Rocco Papaleo), Роландо Равелло (Rolando Ravello), Массимилиано Бруно (Massimiliano Bruno), Сара Фельбербаум (Sarah Felberbaum), Имма Пиро (Imma Piro), Камилла Филиппи (Camilla Filippi) и др.
    Описание: Сатирический взгляд на правила итальянской политики.
    Спаньоло — большая итальянская династия. Во главе её — успешный политик Микеле, отец троих взрослых детей: актрисы, врача и менеджера по персоналу в транснациональной компании. Правда, политик – тот ещё коррупционер, менеджер — глуп как пробка, актриса — разве что не из погорелого театра, а врач – коммунист, порвавший связи с родителем много лет назад. Кто знает, что случилось бы с этой странной семьей, если бы после приватной встречи с проституткой сиятельный папа не пережил инсульт, погрузивший его в необычное состояние: теперь он чудит, матерится и бросает всем окружающим только правду в лицо... (описание взято отсюда)
    Дополнительная информация: В фильме присутствует нецензурная лексика, 16+
    Сэмпл
    Качество видео: DVDRip
    Формат видео: AVI
    Видео: 704x288 (2,4:1), 25 fps, XviD, 1521 kbps, 0.290 bit/pixel
    Аудио (rus): 48 kHz, MP3, 2 ch, 320 kbps
    Аудио (it): 48 kHz, AC3, 6 ch, 448 kbps
    Формат субтитров: softsub (SRT)

    MediaInfo

    Общее
    Полное имя : G:\Download\Viva l'Italia\Viva l'Italia.avi
    Формат : AVI
    Формат/Информация : Audio Video Interleave
    Размер файла : 1,69 Гбайт
    Продолжительность : 1 ч. 47 м.
    Общий поток : 2255 Кбит/сек
    Программа кодирования : VirtualDubMod 1.5.10.2 (build 2540/release)
    Библиотека кодирования : VirtualDubMod build 2540/release
    Видео
    Идентификатор : 0
    Формат : MPEG-4 Visual
    Профиль формата : Advanced Simple@L5
    Параметр BVOP формата : 1
    Параметр QPel формата : Нет
    Параметр GMC формата : Без точки перехода
    Параметр матрицы формата : Default (MPEG)
    Идентификатор кодека : XVID
    Идентификатор кодека/Подсказка : XviD
    Продолжительность : 1 ч. 47 м.
    Битрейт : 1472 Кбит/сек
    Ширина : 704 пикселя
    Высота : 288 пикселей
    Соотношение сторон : 2,40:1
    Частота кадров : 25,000 кадров/сек
    Цветовое пространство : YUV
    Субдискретизация насыщенности : 4:2:0
    Битовая глубина : 8 бит
    Тип развёртки : Прогрессивная
    Метод сжатия : С потерями
    Бит/(Пиксели*Кадры) : 0.290
    Размер потока : 1,11 Гбайт (65%)
    Библиотека кодирования : XviD 1.2.0.dev47 (UTC 2006-11-01)
    Аудио #1
    Идентификатор : 1
    Формат : MPEG Audio
    Версия формата : Version 1
    Профиль формата : Layer 3
    Режим : Joint stereo
    Расширение режима : MS Stereo
    Идентификатор кодека : 55
    Идентификатор кодека/Подсказка : MP3
    Продолжительность : 1 ч. 47 м.
    Вид битрейта : Постоянный
    Битрейт : 320 Кбит/сек
    Каналы : 2 канала
    Частота : 48,0 КГц
    Метод сжатия : С потерями
    Размер потока : 246 Мбайт (14%)
    Выравнивание : Соединение по промежуткам
    Продолжительность промежутка : 40 мс. (1,00 видеокадр)
    Время предзагрузки промежутка : 504 мс.
    Библиотека кодирования : LAME3.97
    Аудио #2
    Идентификатор : 2
    Формат : AC-3
    Формат/Информация : Audio Coding 3
    Расширение режима : CM (complete main)
    Параметр Endianness формата : Big
    Идентификатор кодека : 2000
    Продолжительность : 1 ч. 47 м.
    Вид битрейта : Постоянный
    Битрейт : 448 Кбит/сек
    Каналы : 6 каналов
    Расположение каналов : Front: L C R, Side: L R, LFE
    Частота : 48,0 КГц
    Битовая глубина : 16 бит
    Метод сжатия : С потерями
    Размер потока : 345 Мбайт (20%)
    Выравнивание : Разделение по промежуткам
    Продолжительность промежутка : 40 мс. (1,00 видеокадр)
    Время предзагрузки промежутка : 500 мс.
    Общее
    Полное имя : G:\Download\Viva l'Italia\Viva l'Italia.srt
    Размер файла : 157 Кбайт

    Скриншот c названием фильма

    Скриншоты

    От переводчика: Перевод был выполнен по просьбам трудящихся в довольно сжатые сроки, поэтому прошу прощения за возможные орфографические ошибки в субтитрах.
    При переводе были использованы строки из «Гамлета» (в переводе М.Лозинского), «Сонета 75» Шекспира (в переводе М.Чайковского). Русский текст конституции Итальянской республики был взят здесь.
    Выражаю огромнейшую благодарность Тонкому коту за рифмованный перевод песен и dimmm2v за подготовку ДВД рипа!!
    Скачать .torrent

    Скачать торрент-файл бесплатно и на максимальной скорости!

    Как скачивать? · Что такое торрент? · Рейтинг и ограничения

    !ВНИМАНИЕ!
    Сайт не распространяет и не хранит электронные версии произведений, а занимается лишь лишь предоставлением доступа к создаваемому пользователями каталогу ссылок на торрент-файлы, которые содержат только списки хеш-сумм, убедительная просьба с жалобами обращаться напрямую к пользователю. Файлы для обмена на трекере предоставлены пользователями сайта, и администрация не несёт ответственности за их содержание. Просьба не заливать файлы, защищенные авторскими правами, а также файлы нелегального содержания!


    _________________
    [Профиль] [ЛС]
    Показать сообщения:    
    Ответить на тему

    Текущее время: Сегодня, в 02:33

    Часовой пояс: GMT + 2



    Вы не можете начинать темы
    Вы не можете отвечать на сообщения
    Вы не можете редактировать свои сообщения
    Вы не можете удалять свои сообщения
    Вы не можете голосовать в опросах
    Вы не можете прикреплять файлы к сообщениям
    Вы не можете скачивать файлы