BitTorrentTracker PerecTracker.org
BitTorrentTracker PerecTracker.org
    
Регистрация  ·  Вход
 
 · 
Забыли пароль?

  • Джеки В Царстве Женщин / Jacky Au Royaume Des Filles (Риад Саттуф / Riad Sattouf) [2013, Франция, неполиткорректная комедия, HDRip-AVC] Dub

    Ответить на тему
     
    Автор Сообщение

    Light

    Создавать темы 13-Июн-2015 20:54

           

    [Цитировать]

    Джеки В Царстве Женщин
    Jacky Au Royaume Des Filles
    Неполиткорректная комедия от карикатуриста Charlie Hebdo, редакцию которой расстреляли 7 января 2015 года в Париже за карикатуры на пророка Мухаммеда.
    Страна: Франция
    Жанр: неполиткорректная комедия, абсурд
    Год выпуска: 2013
    Продолжительность: 1:30:02
    Перевод: Профессиональный (дублированный)
    Cубтитры: нет
    Режиссер: Риад Саттуф / Riad Sattouf
    В ролях: Венсан Лакост, Шарлотта Генсбур, Мишель Хазанавичус, Дидье Бурдон, Анемон, Валери Боннетон, Ноэми Львовски, Лор Марсак, Уилльям Лебхил, Антони СонигоОписание:В Народно-Демократической Республике Бубун давно победил матриархат, женщины в этой стране управляют государством, а мужчины являются бесправными хранителями очага и домашними работниками. Прежде чем власть в стране перейдет из рук Генералессы в руки ее дочери Полконессы, будущая верховная властительница должна выбрать себе мужа, и для того в Бубуне объявляется Всебубунский бал, где молодые люди смогут презентовать себя главной холостячке страны. Юный Джеки влюблен в Полконессу и мечтает очаровать ее на балу...
    Эксцентричная, временами грубая, местами жесткая, но отчаянно смешная и по-французски ядовитая комедия о перевернутом мире, где мужчина бесправен перед женщинами в форме, дает прикурить так, что мало не покажется.
    Сатира остроумия и размаха «Джеки в царстве женщин» нынче настоящая редкость. Комедия в этом фильме складывается из тонкой подрывной работы над общественными условностями — а горючим служат самоирония и олдскульные гэги. Кроме того, в программе: социальная критика (и политическая, и религиозная, и сексуальная); феминистская манифестация; абсурд; универсальные темы.
    В этой истории о мире, которым правят женщины, выворачиваются наизнанку коррупция, тоталитарные идеологии и мачо-позерство. И как они правят! Вульгарно грубят после бутылки шнапса. Вводят законы военного времени и выстраивают армейскую иерархию. Дают фору в жестокости и сексизме иным сицилийским мафиози. В их тени мужчины обречены на домашнее рабство, единственная отдушина в котором — мечты о бале «Большой идиот», где Полконесса (Шарлотта Генсбур) выберет себе мужа. И посреди всего этого — несчастный Джеки (Венсан Лакост), у которого нет ни кареты, ни красивого платья, ни приличной родословной. Чтобы добавить к его несчастьям, бедняга еще вынужден ютиться в качестве служанки у тети, терпя постоянные оскорбления дяди и двоюродных братьев.
    Для своей сатирической басни режиссер Риад Саттуф заимствует сюжетную базу у «Золушки» — и дополняет ее прыщами и мастурбацией, травестией и народным восстанием. Знакомые мотивы и фарсовая начинка соединяются тяжеловеснее, чем в дебюте Саттуфа «Красивые парни», в котором автору лучше удалось передать гиперактивную, острую на язык атмосферу собственных комиксов («Назад в колледж», «Тайная жизнь молодых» и так далее). И тем не менее, несколько анекдотическое в случае «Джеки» прочтение любимой Саттуфом темы пубертатных проблем компенсируется абсурдистским политическим и гендерным фоном. Складывающийся из осмеяния шовинизма и коррупции призыв к толерантности может казаться банальным, но в том, что он остается болезненно актуальным, Саттуф, бывший карикатурист Charlie Hebdo, может не убеждать — за него это сделала жизнь.
    Журнал «Time-Out»Сэмпл
    Качество видео: HDRip-AVC
    Формат видео: MKV
    Видео: AVC, 1957 Кбит/с, 1020x548 (1,85:1), 24 кадра/с
    Аудио: AC3, 384 Кбит/с (6 каналов), 48 КГц, 16 бит | Русский

    MediaInfo

    Общее
    Уникальный идентификатор : 242558349910427075941699515365779739078 (0xB67B09F7AB06B1B2883B76FCDAAE91C6)
    Полное имя : Джеки В Царстве Женщин (Riad Sattouf, 2014).mkv
    Формат : Matroska
    Версия формата : Version 4 / Version 2
    Размер файла : 1,50 Гбайт
    Продолжительность : 1 ч. 30 м.
    Общий поток : 2387 Кбит/сек
    Дата кодирования : UTC 2015-06-11 22:55:14
    Программа кодирования : mkvmerge v7.2.0 ('On Every Street') 64bit built on Sep 13 2014 15:52:10
    Библиотека кодирования : libebml v1.3.0 + libmatroska v1.4.1
    Видео
    Идентификатор : 1
    Формат : AVC
    Формат/Информация : Advanced Video Codec
    Профиль формата : High@L4.1
    Параметр CABAC формата : Да
    Параметр ReFrames формата : 12 кадров
    Идентификатор кодека : V_MPEG4/ISO/AVC
    Продолжительность : 1 ч. 30 м.
    Битрейт : 1955 Кбит/сек
    Ширина : 1020 пикселей
    Высота : 548 пикселей
    Соотношение сторон : 1,85:1
    Режим частоты кадров : Постоянный
    Частота кадров : 24,000 кадра/сек
    Цветовое пространство : YUV
    Субдискретизация насыщенности : 4:2:0
    Битовая глубина : 8 бит
    Тип развёртки : Прогрессивная
    Бит/(Пиксели*Кадры) : 0.146
    Размер потока : 1,23 Гбайт (82%)
    Библиотека кодирования : x264 core 146 r2538M 121396c
    Настройки программы : cabac=1 / ref=12 / deblock=1:-3:-3 / analyse=0x3:0x133 / me=umh / subme=10 / psy=1 / psy_rd=1,00:0,10 / mixed_ref=1 / me_range=32 / chroma_me=1 / trellis=2 / 8x8dct=1 / cqm=0 / deadzone=21,11 / fast_pskip=0 / chroma_qp_offset=-3 / threads=11 / lookahead_threads=2 / sliced_threads=0 / nr=0 / decimate=1 / interlaced=0 / bluray_compat=0 / constrained_intra=0 / bframes=11 / b_pyramid=2 / b_adapt=2 / b_bias=0 / direct=1 / weightb=1 / open_gop=0 / weightp=2 / keyint=240 / keyint_min=24 / scenecut=40 / intra_refresh=0 / rc=crf / mbtree=0 / crf=18,0 / qcomp=0,60 / qpmin=18 / qpmax=69 / qpstep=4 / ip_ratio=1,40 / pb_ratio=1,30 / aq=1:1,00
    Язык : French
    Default : Да
    Forced : Нет
    Аудио
    Идентификатор : 2
    Формат : AC-3
    Формат/Информация : Audio Coding 3
    Расширение режима : CM (complete main)
    Параметр Endianness формата : Big
    Идентификатор кодека : A_AC3
    Продолжительность : 1 ч. 30 м.
    Вид битрейта : Постоянный
    Битрейт : 384 Кбит/сек
    Каналы : 6 каналов
    Расположение каналов : Front: L C R, Side: L R, LFE
    Частота : 48,0 КГц
    Битовая глубина : 16 бит
    Метод сжатия : С потерями
    Размер потока : 247 Мбайт (16%)
    Заголовок : Бубляж
    Язык : Russian
    Default : Да
    Forced : Нет
    Меню
    00:00:00.000 : :00:00:00.000
    00:07:03.958 : :00:07:03.958
    00:12:36.083 : :00:12:36.083
    00:16:37.375 : :00:16:37.375
    00:24:48.833 : :00:24:48.833
    00:28:22.958 : :00:28:22.958
    00:35:56.375 : :00:35:56.375
    00:39:36.625 : :00:39:36.625
    00:46:45.042 : :00:46:45.042
    00:49:39.667 : :00:49:39.667
    00:55:39.250 : :00:55:39.250
    01:00:37.375 : :01:00:37.375
    01:06:24.375 : :01:06:24.375
    01:10:43.667 : :01:10:43.667
    01:17:43.875 : :01:17:43.875
    01:24:52.542 : :01:24:52.542

    Скриншот c названием фильма

    Скриншоты

    Скачать .torrent

    Скачать торрент-файл бесплатно и на максимальной скорости!

    Как скачивать? · Что такое торрент? · Рейтинг и ограничения

    !ВНИМАНИЕ!
    Сайт не распространяет и не хранит электронные версии произведений, а занимается лишь лишь предоставлением доступа к создаваемому пользователями каталогу ссылок на торрент-файлы, которые содержат только списки хеш-сумм, убедительная просьба с жалобами обращаться напрямую к пользователю. Файлы для обмена на трекере предоставлены пользователями сайта, и администрация не несёт ответственности за их содержание. Просьба не заливать файлы, защищенные авторскими правами, а также файлы нелегального содержания!


    _________________
    [Профиль] [ЛС]
    Показать сообщения:    
    Ответить на тему

    Текущее время: Сегодня, в 15:37

    Часовой пояс: GMT + 2



    Вы не можете начинать темы
    Вы не можете отвечать на сообщения
    Вы не можете редактировать свои сообщения
    Вы не можете удалять свои сообщения
    Вы не можете голосовать в опросах
    Вы не можете прикреплять файлы к сообщениям
    Вы не можете скачивать файлы