BitTorrentTracker PerecTracker.org
BitTorrentTracker PerecTracker.org
    
Регистрация  ·  Вход
 
 · 
Забыли пароль?

  • Моя прекрасная итальянская семья / La mia bella famiglia italiana / Il ritorno / Lebe lieber italienisch! (Олаф Крайнзен / Olaf Kreinsen) [2013, Италия, мелодрама, комедия, HDTVRip-AVC] Sub Rus + Original Ita

    Ответить на тему
     
    Автор Сообщение

    Light

    Создавать темы 13-Июн-2015 20:54

           

    [Цитировать]

    Моя прекрасная итальянская семья
    La mia bella famiglia italiana
    Страна: Италия
    Жанр: мелодрама, комедия
    Год выпуска: 2013
    Продолжительность: 01:35:00
    Перевод: cубтитры (lab30, ladySpais)
    Cубтитры: русские, отключаемые
    Оригинальная аудиодорожка: итальянский
    Режиссер: Олаф Крайнзен (Olaf Kreinsen)
    В ролях: Алессандро Прециози (Alessandro Preziosi), Таня Ведхорн (Tanja Wedhorn), Пеппино Маццотта (Peppino Mazzotta), Карин Пройя (Karin Proia), Патрик Мёллекен (Patrick Mölleken), Нунция Скьяно (Nunzia Schiano), Никола Риньянезе (Nicola Rignanese), Микеле Ди Вирджилио (Michele Di Virgilio), Элмар Гелен (Elmar Gehlen), Франко Пальтера (Franco Paltera), Кьяра Паоли (Chiara Paoli), Умберто Сарделла (Umberto Sardella).
    Описание: Паоло — инженер-итальянец, эмигрировавший в Германию. Можно сказать, что его жизнь удалась — у него спокойная, размеренная жизнь, работа по душе, любящая семья. Но неожиданный звонок из Италии вынуждает его вернуться на родину, откуда он сбежал 20 лет назад после таинственного несчастного случая, в котором погиб его отец. И его возвращение порождает целую череду событий: теперь ему нужно спасти семейное дело и отношения с женой, встретить свою первую любовь и познакомиться с девушкой, которая вполне может оказаться его дочерью. Но самое главное, наконец-то, узнать правду о гибели своего отца. Правду, которая позволит Паоло помириться с прошлым и начать новую жизнь с его "прекрасной итальянской семьёй".
    Сэмпл: http://multi-up.com/1053227
    Качество видео: HDTVRip-AVC
    Формат видео: MP4
    Видео: 1024x576 (16:9), 25 fps, AVC1, 1800 kbps, 0.122 bit/pixel
    Аудио: 48 kHz, AAC, 2 ch, 45,5 kbps
    Формат субтитров: softsub (SRT)

    MediaInfo

    Общее
    Полное имя : G:\Download\La mia bella famiglia italiana\La mia bella famiglia italiana.mp4
    Формат : MPEG-4
    Профиль формата : Base Media
    Идентификатор кодека : isom
    Размер файла : 1,22 Гбайт
    Продолжительность : 1 ч. 34 м.
    Режим общего битрейта : Переменный
    Общий поток : 1848 Кбит/сек
    Дата кодирования : UTC 2014-02-18 00:36:08
    Дата пометки : UTC 2014-02-18 00:36:08
    Видео
    Идентификатор : 1
    Формат : AVC
    Формат/Информация : Advanced Video Codec
    Профиль формата : Main@L3.1
    Параметр CABAC формата : Да
    Параметр ReFrames формата : 2 кадра
    Параметр GOP формата : M=1, N=25
    Идентификатор кодека : avc1
    Идентификатор кодека/Информация : Advanced Video Coding
    Продолжительность : 1 ч. 34 м.
    Вид битрейта : Постоянный
    Битрейт : 1800 Кбит/сек
    Максимальный битрейт : 5186 Кбит/сек
    Ширина : 1024 пикселя
    Высота : 576 пикселей
    Соотношение сторон : 16:9
    Режим частоты кадров : Постоянный
    Частота кадров : 25,000 кадров/сек
    Стандарт вещания : Component
    Цветовое пространство : YUV
    Субдискретизация насыщенности : 4:2:0
    Битовая глубина : 8 бит
    Тип развёртки : Прогрессивная
    Бит/(Пиксели*Кадры) : 0.122
    Размер потока : 1,19 Гбайт (97%)
    Дата пометки : UTC 2014-02-18 00:36:17
    Аудио
    Идентификатор : 2
    Формат : AAC
    Формат/Информация : Advanced Audio Codec
    Профиль формата : LC
    Идентификатор кодека : 40
    Продолжительность : 1 ч. 34 м.
    Вид битрейта : Переменный
    Битрейт : 45,5 Кбит/сек
    Максимальный битрейт : 46,7 Кбит/сек
    Каналы : 2 канала
    Расположение каналов : Front: L R
    Частота : 48,0 КГц
    Метод сжатия : С потерями
    Размер потока : 30,8 Мбайт (2%)
    Язык : English
    Дата кодирования : UTC 2014-02-18 00:36:09
    Дата пометки : UTC 2014-02-18 00:36:17
    Общее
    Полное имя : G:\Download\La mia bella famiglia italiana\La mia bella famiglia italiana.srt
    Формат : SubRip
    Размер файла : 79,9 Кбайт
    Текст
    Формат : SubRip
    Метод сжатия : Без потерь

    Скриншот c названием фильма

    Скриншоты

    Скачать .torrent

    Скачать торрент-файл бесплатно и на максимальной скорости!

    Как скачивать? · Что такое торрент? · Рейтинг и ограничения

    !ВНИМАНИЕ!
    Сайт не распространяет и не хранит электронные версии произведений, а занимается лишь лишь предоставлением доступа к создаваемому пользователями каталогу ссылок на торрент-файлы, которые содержат только списки хеш-сумм, убедительная просьба с жалобами обращаться напрямую к пользователю. Файлы для обмена на трекере предоставлены пользователями сайта, и администрация не несёт ответственности за их содержание. Просьба не заливать файлы, защищенные авторскими правами, а также файлы нелегального содержания!


    _________________
    [Профиль] [ЛС]
    Показать сообщения:    
    Ответить на тему

    Текущее время: Сегодня, в 02:59

    Часовой пояс: GMT + 2



    Вы не можете начинать темы
    Вы не можете отвечать на сообщения
    Вы не можете редактировать свои сообщения
    Вы не можете удалять свои сообщения
    Вы не можете голосовать в опросах
    Вы не можете прикреплять файлы к сообщениям
    Вы не можете скачивать файлы