BitTorrentTracker PerecTracker.org
BitTorrentTracker PerecTracker.org
    
Регистрация  ·  Вход
 
 · 
Забыли пароль?

  • Волшебное рождество у Микки: Запертые снегом в мышином доме / Mickey\'s Magical Christmas: Snowed in at the House of Mouse (Тони Крэйг / Tony Craig) [2001, мультфильм, WEB-DLRip] DUB + AVO (Живов)

    Ответить на тему
     
    Автор Сообщение

    rechyn

    Создавать темы 13-Июн-2015 16:42

           

    [Цитировать]

    Волшебное рождество у Микки: Запертые снегом в мышином доме
    Mickey's Magical Christmas: Snowed in at the House of Mouse
    «It's snowed in at the House of Mouse!»
    Страна: США
    Жанр: мультфильм, комедия, приключения, семейный
    Продолжительность: 01:02:24
    Год выпуска: 2001-Перевод: Профессиональный (Дублированный) DUB
    Перевод: Авторский (Одноголосый закадровый) Юрий Живов
    Русские субтитры: нет
    Режиссёр: Тони Крэйг, Роберт Ганнавей, Рик Шнайдер / Tony Craig, Roberts Gannaway, Rick Schneider-Роли озвучивали: Карлос Аласраки, Уэйн Оллвэйн, Тони Ансельмо, Джефф Беннетт, Джоди Бенсон, Робби Бенсон, Кори Бертон, Эдди Кэрролл, Пэт Кэрролл, Джон Клиз
    Роли дублировали: Максим Сергеев, Константин Петров, Ксения Бржезовская, Олег Куликович, Андрей Тенетко-Описание: Когда из-за снежной бури все вынуждены остаться дома, Микки и гости его Мышиного Дома, включая Пуха, Поросенка, Бэлль, Белоснежку, Ариэль и многих других старых и новых друзей, из всех сил пытаются с помощью печенья и горячего шоколада развеселить Дональда и исправить его испорченное рождественское настроение.
    Веселье начинается, когда Минни предлагает посмотреть любимые праздничные фильмы, и все предаются приятным воспоминаниям, которые волшебным образом создают рождественскую атмосферу вокруг — даже сварливый Дональд начинает веселиться и, в конце концов, становится настоящей звездой вечера.-В состав компиляции входят мультфильмы:
    1. Дональд на льду / Donald on Ice (1999 г.)
    2. Рождественская ёлка Плуто / Pluto's Christmas Tree (1952 г.)
    3. Щелкунчик / The Nutcracker (1999 г.)
    4. Рождественский хаос Микки / Mickey's Christmas Chaos (2000 г.)
    5. Рождественская история Микки / Mickey's Christmas Carol (1983 г.)-Релиз:
    | | -• Большое спасибо ZoomBieprodigy за покупку WEB-DL
    • Работа с WEB-DL и звуком-Azureus--Качество: WEB-DLRip
    Формат: AVI
    Видео: 688x512 (1.34:1), 23,976 fps, XviD 66 ~1 535 kbps avg, 0.18 bit/pixel
    Аудио: 48.0 kHz, MPEG Layer 3, 2/0 (L,R) ch, ~128 kbps |DUB|
    Аудио: 48.0 kHz, MPEG Layer 3, 2/0 (L,R) ch, ~128 kbps |AVO| отдельно
    Субтитры: отсутствуют

    MI


    General
    Complete name : D:\Mickey's Magical Christmas Snowed in at the House of Mouse.2001.WEB-DL.avi
    Format : AVI
    Format/Info : Audio Video Interleave
    File size : 746 MiB
    Duration : 1h 2mn
    Overall bit rate : 1 671 Kbps
    Writing application : VirtualDubMod 1.5.10.2 (build 2540/release)
    Writing library : VirtualDubMod build 2540/release
    Video
    ID : 0
    Format : MPEG-4 Visual
    Format profile : Advanced Simple@L5
    Format settings, BVOP : 1
    Format settings, QPel : No
    Format settings, GMC : No warppoints
    Format settings, Matrix : Custom
    Codec ID : XVID
    Codec ID/Hint : XviD
    Duration : 1h 2mn
    Bit rate : 1 535 Kbps
    Width : 688 pixels
    Height : 512 pixels
    Display aspect ratio : 4:3
    Frame rate : 23.976 fps
    Color space : YUV
    Chroma subsampling : 4:2:0
    Bit depth : 8 bits
    Scan type : Progressive
    Compression mode : Lossy
    Bits/(Pixel*Frame) : 0.182
    Stream size : 685 MiB (92%)
    Writing library : XviD 66
    Audio
    ID : 1
    Format : MPEG Audio
    Format version : Version 1
    Format profile : Layer 3
    Codec ID : 55
    Codec ID/Hint : MP3
    Duration : 1h 1mn
    Bit rate mode : Constant
    Bit rate : 128 Kbps
    Channel(s) : 2 channels
    Sampling rate : 48.0 KHz
    Compression mode : Lossy
    Stream size : 56.5 MiB (8%)
    Alignment : Aligned on interleaves
    Interleave, duration : 42 ms (1.01 video frame)
    Interleave, preload duratio : 504 ms

    Скриншоты


    _________________
    [Профиль] [ЛС]
    Показать сообщения:    
    Ответить на тему

    Текущее время: Сегодня, в 08:54

    Часовой пояс: GMT + 2



    Вы не можете начинать темы
    Вы не можете отвечать на сообщения
    Вы не можете редактировать свои сообщения
    Вы не можете удалять свои сообщения
    Вы не можете голосовать в опросах
    Вы не можете прикреплять файлы к сообщениям
    Вы не можете скачивать файлы