Register  ·  Log in
Forgot password?

  • Территория (Александр Мельник) [2014, Приключения, драма, DVDRip]

    Reply to topic
    Author Message


    Post 13-Jun-2015 13:30



    Жанр: Приключения, драма
    Год выпуска: 2014
    Продолжительность: 02:32:13
    Режиссёр: Александр Мельник
    В ролях: Константин Лавроненко, Григорий Добрыгин, Егор Бероев, Ксения Кутепова, Евгений Цыганов, Владислав Абашин, Герасим Васильев, Константин Шелестун, Константин Балакирев, Олег Шапков
    Описание: Территория — это место, где люди проверяются на прочность. Необозримые пространства, где тундра встречается с ледяными торосами Ледовитого океана. Суровый русский север, которому способны бросить вызов немногие. Геолог Илья Чинков, одержимый идеей найти легендарное золото Территории, собирает команду смельчаков, готовых поставить на карту все, включая собственные жизни.
    Качество видео: DVDRip
    Формат видео: AVI
    Видео: 720x304 (2.35:1), 25 fps, XviD 73 ~1597 kbps avg, 0.292 bit/pixel
    Аудио: 48.0 kHz, AC3 Dolby Digital, 6 ch, ~448 kbps


    Complete name : F:\Download\Teritoria.2015.DVDRip..avi
    Format : AVI
    Format/Info : Audio Video Interleave
    Format profile : OpenDML
    File size : 2.19 GiB
    Duration : 2h 32mn
    Overall bit rate : 2 057 Kbps
    Writing application : VirtualDubMod | || (build 2550/release)
    Writing library : VirtualDubMod build 2550/release
    ID : 0
    Format : MPEG-4 Visual
    Format profile : Advanced Simple@L5
    Format settings, BVOP : 1
    Format settings, QPel : No
    Format settings, GMC : No warppoints
    Format settings, Matrix : Custom
    Codec ID : XVID
    Codec ID/Hint : XviD
    Duration : 2h 32mn
    Bit rate : 1 597 Kbps
    Width : 720 pixels
    Height : 304 pixels
    Display aspect ratio : 2.35:1
    Frame rate : 25.000 fps
    Color space : YUV
    Chroma subsampling : 4:2:0
    Bit depth : 8 bits
    Scan type : Progressive
    Compression mode : Lossy
    Bits/(Pixel*Frame) : 0.292
    Stream size : 1.70 GiB (78%)
    Writing library : XviD 73
    ID : 1
    Format : AC-3
    Format/Info : Audio Coding 3
    Mode extension : CM (complete main)
    Format settings, Endianness : Big
    Codec ID : 2000
    Duration : 2h 32mn
    Bit rate mode : Constant
    Bit rate : 448 Kbps
    Channel(s) : 6 channels
    Channel positions : Front: L C R, Side: L R, LFE
    Sampling rate : 48.0 KHz
    Compression mode : Lossy
    Stream size : 488 MiB (22%)
    Alignment : Split accross interleaves
    Interleave, duration : 40 ms (1.00 video frame)
    Interleave, preload duratio : 500 ms

    Скриншот c названием фильма


    Download .torrent

    Download free and at maximum speed!

    How to Download? · What is a torrent? · Ratings and Limitations

    The site does not extend and does not store electronic(digital) versions of products, and only gives access to a reference catalogue created by users on torrent-files which contain only lists of the hash-sums, the earnest entreaty, with complaints(abuse) to access directly to the user. Files for an exchange on tracker are given by users of a site, and the administration does not bear the responsibility for their maintenance. The request to not fill in the files protected by copyrights, and also files of the illegal maintenance!

    [Profile] [PM]
    Display posts from previous:    
    Reply to topic

    The time now is: Today 07:38

    All times are GMT + 3 Hours

    You cannot post new topics in this forum
    You cannot reply to topics in this forum
    You cannot edit your posts in this forum
    You cannot delete your posts in this forum
    You cannot vote in polls in this forum
    You cannot attach files in this forum
    You cannot download files in this forum