BitTorrentTracker PerecTracker.org
BitTorrentTracker PerecTracker.org
    
Регистрация  ·  Вход
 
 · 
Забыли пароль?

  • Рассказ о простой вещи (Леонид Менакер) [1975, драма, приключения, экранизация, DVB]

    Ответить на тему
     
    Автор Сообщение

    Light

    Создавать темы 13-Июн-2015 04:06

           

    [Цитировать]

    Рассказ о простой вещи
    Жанр: драма, приключения, экранизация
    Год выпуска: 1975
    Продолжительность: 01:20:23
    Режиссёр: Леонид Менакер
    В ролях:
    Армен Джигарханян — чекист Орлов
    Алла Чернова — Белла
    Михаил Глузский — следователь Туманович, белый подполковник
    Олег Борисов — поручик Соболевский, контрразведчик
    Виктор Авдюшко — чекист Семенухин (роль озвучил — Игорь Ефимов)
    Владимир Заманский — Микола Емельчук, мужик, которого схватила белая контрразведка
    Юрий Медведев — доктор Соковнин
    Людмила Макарова — Соковнина, супруга доктора
    Ольга Богданова — Лиля
    В эпизодах:
    Александр Суснин — белогвардейский подпоручик
    Эрнст Романов — белый офицер
    Владимир Эренберг — полковник
    Владимир Талашко — Сергей Круглов, белый офицер
    Сергей Иванов — прапорщик Василевский
    Дмитрий Бессонов — поручик
    В титрах не указаны:
    Вячеслав Васильев — белый генерал Чернецов
    Пантелеймон Крымов — железнодорожник
    Жанна Сухопольская — эпизод
    Юрий Шепелев — коммерсант
    Виктор Шульгин — управдом (роль озвучил — Игорь Ефимов)
    Описание: По рассказу Бориса Лавренева. Почувствовав, что белые возьмут город, чекисты во главе с внушающим всем ужас Орловым (Джигарханян) подселили в пятикомнатную квартиру врача — певицу, выпускницу консерватории, которую владельцы квартиры приняли как родную, так как опасались подселения кого-либо из рабочего класса. С приходом в город белых к певице, мило болтающей по-французски, приехал муж-коммерсант по фамили Кутерье (все тот же Джигарханян). Зритель уже догадался, что задумано это было для того, чтобы шпионить и вредить белым. Чем закончится эта с юмором снятая история, любители фильмов о подпольщиках и героической борьбе за становление Советской власти узнают сами. Сделана картина неплохо в лучших традициях фильмов о гражданской войне.
    Доп. информация: От себя хочу отметить превосходную игру Михаила Глузского (Туманович), его роль мне запомнилась особо . Виден цельный характер: принципиальный, честный даже по отношению к непримиримому противнику, которым является Джигарханян - Орлов.
    Семпл: https://www.sendspace.com/file/5hw18b
    Качество видео: DVB
    Формат видео: MPG
    Видео: MPEG2, 720x576 (4:3), 2469 Кбит/сек, 25,000 кадров/сек , (0.238 bit/pixel)
    Аудио: MP2, 192 Кбит/сек, 48,0 КГц, 2 канала

    MediaInfo

    Общее
    Полное имя : Рассказ о простой вещи.mpg
    Формат : MPEG-PS
    Размер файла : 1,52 Гбайт
    Продолжительность : 1 ч. 20 м.
    Режим общего битрейта : Переменный
    Общий поток : 2715 Кбит/сек
    Видео
    Идентификатор : 224 (0xE0)
    Формат : MPEG Video
    Версия формата : Version 2
    Профиль формата : Main@Main
    Параметр BVOP формата : Да
    Параметр матрицы формата : Выборочная
    Параметр GOP формата : M=3, N=12
    Структура изображения : Frame
    Продолжительность : 1 ч. 20 м.
    Вид битрейта : Переменный
    Битрейт : 2469 Кбит/сек
    Максимальный битрейт : 10000 Кбит/сек
    Ширина : 720 пикселей
    Высота : 576 пикселей
    Соотношение сторон : 4:3
    Частота кадров : 25,000 кадров/сек
    Стандарт вещания : PAL
    Цветовое пространство : YUV
    Субдискретизация насыщенности : 4:2:0
    Битовая глубина : 8 бит
    Тип развёртки : Чересстрочная
    Порядок развёртки : Верхнее поле первое
    Метод сжатия : С потерями
    Бит/(Пиксели*Кадры) : 0.238
    Временной код первого кадра : 00:00:00:00
    Оригинал временного кода : Group of pictures header
    GOP, открыто/закрыто : Открыто
    GOP, открыто/закрыто на первом кадре : Закрыто
    Размер потока : 1,39 Гбайт (91%)
    Аудио
    Идентификатор : 192 (0xC0)
    Формат : MPEG Audio
    Версия формата : Version 1
    Профиль формата : Layer 2
    Продолжительность : 1 ч. 20 м.
    Вид битрейта : Постоянный
    Битрейт : 192 Кбит/сек
    Каналы : 2 канала
    Частота : 48,0 КГц
    Метод сжатия : С потерями
    Задержка видео : 20 мс.
    Размер потока : 110 Мбайт (7%)

    Скриншоты

    Запись потока *.ts произведена тюнером цифрового телевидения. В связи с тем, что не все плееры воспроизводят поток *.ts (MPEG-TS) , в данном видеофайле мной был сделан ремукс потока *.ts (MPEG-TS) в *.mpg (MPEG-PS) программой VideoReDo.
    Скачать .torrent

    Скачать торрент-файл бесплатно и на максимальной скорости!

    Как скачивать? · Что такое торрент? · Рейтинг и ограничения

    !ВНИМАНИЕ!
    Сайт не распространяет и не хранит электронные версии произведений, а занимается лишь лишь предоставлением доступа к создаваемому пользователями каталогу ссылок на торрент-файлы, которые содержат только списки хеш-сумм, убедительная просьба с жалобами обращаться напрямую к пользователю. Файлы для обмена на трекере предоставлены пользователями сайта, и администрация не несёт ответственности за их содержание. Просьба не заливать файлы, защищенные авторскими правами, а также файлы нелегального содержания!


    _________________
    [Профиль] [ЛС]
    Показать сообщения:    
    Ответить на тему

    Текущее время: Сегодня, в 08:18

    Часовой пояс: GMT + 2



    Вы не можете начинать темы
    Вы не можете отвечать на сообщения
    Вы не можете редактировать свои сообщения
    Вы не можете удалять свои сообщения
    Вы не можете голосовать в опросах
    Вы не можете прикреплять файлы к сообщениям
    Вы не можете скачивать файлы