BitTorrentTracker PerecTracker.org
BitTorrentTracker PerecTracker.org
    
Регистрация  ·  Вход
 
 · 
Забыли пароль?

  • Квартирный вопрос / Синий камин и шкаф обманка (№ 379) / 20.04.2013 [2013 г., Тв-шоу, DVB]

    Ответить на тему
     
    Автор Сообщение

    Columb

    Создавать темы 20-Апр-2013 21:54

           

    [Цитировать]

    Квартирный вопрос / Синий камин и шкаф обманка (№ 379) / 20.04.2013-Год выпуска: 2013
    Страна: Россия, НТВ
    Жанр: Тв-шоу
    Продолжительность: 00:48:43
    Ведущая: Ольга Шульга
    Описание: Гостиную дружной семьи Седовых Ольга Куликовская переделает так, что и хозяева, и их многочисленные гости будут чувствовать себя абсолютно комфортно. Центром комнаты станет камин с ласковым пламенем, а вся посуда займет свое место в шкафах-обманках.
    Доп. информация: С этой недели НТВ перешёл на формат показа 16/9. Поэтому картинка анаморфно растянута по вертикали также, как у Первого канала и у ДВД с анаморфной картинкой. Растягивается на ширину экрана средствами просмотра.
    Качество: DVB
    Формат: TS
    Видео кодек: H.264
    Аудио кодек:MP2
    Видео: AVC (H264) 720x576 25.00fps 1 993 Kbps
    Аудио: MPEG Audio Layer 2 48000Hz stereo 128 Kbps

    MediaInfo

    General
    ID : 1 (0x1)
    Complete name : H:\Торрент\Мои раздачи\ТВ\НТВ\Квартирный вопрос\2013\2013 04 20\КВ - № 379 - 20 04 2013 - Синий камин и шкаф обманка.ts
    Format : MPEG-TS
    File size : 778 MiB
    Duration : 48mn 43s
    Overall bit rate : 2 232 Kbps
    Video
    ID : 402 (0x192)
    Menu ID : 4 (0x4)
    Format : AVC
    Format/Info : Advanced Video Codec
    Format version : Version 2
    Format profile : Main@L3.0
    Format settings, CABAC : Yes
    Format settings, ReFrames : 4 frames
    Format settings, GOP : M=1, N=48
    Codec ID : 27
    Duration : 48mn 43s
    Bit rate : 1 993 Kbps
    Maximum bit rate : 2 169 Kbps
    Width : 720 pixels
    Height : 576 pixels
    Display aspect ratio : 4:3
    Frame rate : 25.000 fps
    Standard : PAL
    Color space : YUV
    Chroma subsampling : 4:2:0
    Bit depth : 8 bits
    Scan type : Interlaced
    Scan order : Top Field First
    Bits/(Pixel*Frame) : 0.192
    Stream size : 694 MiB (89%)
    Color primaries : BT.470-6 System B, BT.470-6 System G, BT.601-6 625, BT.1358 625, BT.1700 625 PAL, BT.1700 625 SECAM
    Transfer characteristics : BT.470-6 System B, BT.470-6 System G
    Matrix coefficients : BT.470-6 System B, BT.470-6 System G, BT.601-6 625, BT.1358 625, BT.1700 625 PAL, BT.1700 625 SECAM, IEC 61966-2-4 601
    Audio
    ID : 403 (0x193)
    Menu ID : 4 (0x4)
    Format : MPEG Audio
    Format version : Version 1
    Format profile : Layer 2
    Codec ID : 4
    Duration : 48mn 43s
    Bit rate mode : Constant
    Bit rate : 128 Kbps
    Maximum bit rate : 144 Kbps
    Channel(s) : 1 channel
    Sampling rate : 48.0 KHz
    Compression mode : Lossy
    Delay relative to video : 60ms
    Stream size : 44.6 MiB (6%)
    Language : Russian
    Menu
    ID : 401 (0x191)
    Menu ID : 4 (0x4)
    Duration : 48mn 43s
    List : 402 (0x192) (AVC) / 403 (0x193) (MPEG Audio, Russian)
    Language : / Russian
    Maximum bit rate : 2342000

    Скриншоты




    Скачать .torrent

    Скачать торрент-файл бесплатно и на максимальной скорости!

    Как скачивать? · Что такое торрент? · Рейтинг и ограничения

    !ВНИМАНИЕ!
    Сайт не распространяет и не хранит электронные версии произведений, а занимается лишь лишь предоставлением доступа к создаваемому пользователями каталогу ссылок на торрент-файлы, которые содержат только списки хеш-сумм, убедительная просьба с жалобами обращаться напрямую к пользователю. Файлы для обмена на трекере предоставлены пользователями сайта, и администрация не несёт ответственности за их содержание. Просьба не заливать файлы, защищенные авторскими правами, а также файлы нелегального содержания!

    [Профиль] [ЛС]
    Показать сообщения:    
    Ответить на тему

    Текущее время: Сегодня, в 12:03

    Часовой пояс: GMT + 2



    Вы не можете начинать темы
    Вы не можете отвечать на сообщения
    Вы не можете редактировать свои сообщения
    Вы не можете удалять свои сообщения
    Вы не можете голосовать в опросах
    Вы не можете прикреплять файлы к сообщениям
    Вы не можете скачивать файлы