Register  ·  Log in
Forgot password?

  • Кто Я? / Who Am I / Wo Shi Shei (Бенни Чан / Benny Chan, Джеки Чан / Jackie Chan) [1998, Гонконг, боевик, приключения, комедия, DVDRip] [Полная версия] Dub

    Reply to topic
    Author Message


    Post 12-Jun-2015 19:09



    Кто Я? / Who Am I / Wo Shi Shei-Страна: Гонконг
    Год выпуска: 1998
    Жанр: боевик, приключения, комедия
    Продолжительность: 02:00:27
    Перевод: Профессиональный (полное дублирование)
    Оригинальная аудиодорожка: нет
    Cубтитры: нет
    Режиссер: Бенни Чан / Benny Chan, Джеки Чан / Jackie Chan
    В ролях: Джеки Чан, Мишель Ферре, Мираи Ямамото, Рон Смержак, Эд Нельсон, Том Помперт, Глори Саймон, Фред ван Дитмарш, Фриц Кромменхёк, Дик Риенстра
    Описание: Группа спецназа, работающая под прикрытием ЦРУ, направляется на задание по вывозу энергетического тела, которое было найдено учеными в африканских джунглях. По окончании операции всю группу пытаются ликвидировать. Один из солдат, выживший после авиакатастрофы, но потерявший память, пытается бороться со своими мыслями и вспомнить, кто он. На пути к истине ему мешают, и он не знает, кому можно верить.
    -Качество: DVDRip
    Формат: AVI
    Видео кодек: XviD
    Аудио кодек: AC3
    Видео: 720x304 (2.37:1), 23.976 fps, XviD build 73 ~1537 kbps avg, 0.29 bit/pixel
    Аудио: 48 kHz, AC3 Dolby Digital, 2/0 (L,R) ch, ~192 kbps-Раздача от:



    D:\Мои рипы\Wo.shi.shei.1998.dvdrip.dexter_lex.avi
    Complete name : D:\Мои рипы\Wo.shi.shei.1998.dvdrip.dexter_lex.avi
    Format : AVI
    Format/Info : Audio Video Interleave
    File size : 1.46 GiB
    Duration : 2h 0mn
    Overall bit rate : 1 739 Kbps
    Writing application : VirtualDubMod | || (build 2550/release)
    Writing library : VirtualDubMod build 2550/release
    Video #0
    ID : 0
    Format : MPEG-4 Visual
    Format profile : Advanced Simple@L5
    Format settings, BVOP : 1
    Format settings, QPel : No
    Format settings, GMC : No warppoints
    Format settings, Matrix : Custom
    Codec ID : XVID
    Codec ID/Hint : XviD
    Duration : 2h 0mn
    Bit rate : 1 538 Kbps
    Width : 720 pixels
    Height : 304 pixels
    Display aspect ratio : 2.35:1
    Frame rate : 23.976 fps
    Color space : YUV
    Chroma subsampling : 4:2:0
    Bit depth : 8 bits
    Scan type : Progressive
    Compression mode : Lossy
    Bits/(Pixel*Frame) : 0.293
    Stream size : 1.29 GiB (88%)
    Writing library : XviD 73
    Audio #1
    ID : 1
    Format : AC-3
    Format/Info : Audio Coding 3
    Mode extension : CM (complete main)
    Codec ID : 2000
    Duration : 2h 0mn
    Bit rate mode : Constant
    Bit rate : 192 Kbps
    Channel(s) : 2 channels
    Channel positions : Front: L R
    Sampling rate : 48.0 KHz
    Bit depth : 16 bits
    Compression mode : Lossy
    Stream size : 165 MiB (11%)
    Alignment : Split accross interleaves
    Interleave, duration : 42 ms (1.00 video frame)
    Interleave, preload duration : 500 ms
    Download .torrent

    Download free and at maximum speed!

    How to Download? · What is a torrent? · Ratings and Limitations

    The site does not extend and does not store electronic(digital) versions of products, and only gives access to a reference catalogue created by users on torrent-files which contain only lists of the hash-sums, the earnest entreaty, with complaints(abuse) to access directly to the user. Files for an exchange on tracker are given by users of a site, and the administration does not bear the responsibility for their maintenance. The request to not fill in the files protected by copyrights, and also files of the illegal maintenance!

    [Profile] [PM]
    Display posts from previous:    
    Reply to topic

    The time now is: Today 20:37

    All times are GMT + 3 Hours

    You cannot post new topics in this forum
    You cannot reply to topics in this forum
    You cannot edit your posts in this forum
    You cannot delete your posts in this forum
    You cannot vote in polls in this forum
    You cannot attach files in this forum
    You cannot download files in this forum