BitTorrentTracker PerecTracker.org
BitTorrentTracker PerecTracker.org
    
Регистрация  ·  Вход
 
 · 
Забыли пароль?

  • Проект "А" 2 / Project A 2 / «A» gai waak juk jap (Джеки Чан / Jackie Chan) [1987, Гонконг, США, боевик, комедия, криминал, DVDRip] [Международная Версия] MVO (Первый Канал) + DVO (НТВ) + 4 x AVO (Визгунов, Дольский, Живов, Сонькин)

    Ответить на тему
     
    Автор Сообщение

    rechyn

    Создавать темы 12-Июн-2015 18:06

           

    [Цитировать]

    Проект "А" 2 / Project A 2 / «A» gai wak juk jap / Международная Версия
    Год выпуска: 1987
    Страна: Гонконг, США
    Жанр: боевик, комедия, криминал
    Продолжительность: 01:33:22
    Перевод: Профессиональный (многоголосый закадровый) - Первый Канал
    Перевод 2: Профессиональный (двухголосый закадровый) - НТВ
    Перевод 3: Авторский (одноголосый закадровый) - Визгунов
    Перевод 4: Авторский (одноголосый закадровый) - Дольский
    Перевод 5: Авторский (одноголосый закадровый) - Живов
    Перевод 6: Авторский (одноголосый закадровый) - Сонькин
    Cубтитры: нет
    Режиссер: Джеки Чан / Jackie Chan
    В ролях: Джеки Чан (Sergeant Dragon Ma Yue Lung), Мэгги Чун (Yesan), Розамунд Кван (Miss Pak), Карина Лау (Beattie), Дэвид Лам (Superintendant Chun), Билл Тун (Police Commissioner), Сэм Луи (Mr. Man), Реджина Кент (Regina, Governor's Daughter), Йао Лин Чен (Awesome Wolf), Кенни Хо (Shi King)-Мировая премьера: 7 августа 1987-Описание: Отважный Дракон Ма, прославившийся благодаря уничтожению пиратской шайки Ло Сэм По, получает новое назначение — его делают начальником округа. Основная причина этого назначения состоит в том, что власти сомневаются в чистоплотности его предшественника Чуна. В результате мастерски выполненной подставы Дракона арестовывают, но он не прекращает попыток разоблачить Чуна…-Доп. информация:
    За запись перевода с Первого Канала в 2000-х годах через видеомагнитофон и оцифровку с видеокассеты большое спасибо ostrvskijjp.
    За запись перевода с телеканала НТВ в 90-х годах через видеомагнитофон и оцифровку с видеокассеты большое спасибо Lalola.
    Синхронизация переводов - JUSTKANT.-Информация о релизе:
    В этой раздаче международная версия фильма, которую как раз и показывали по ТВ. Даже начальные титры совсем другие, чем на DVD и BDRip изданиях. Перевод Первого Канала на трекере появляется впервые.
    Текст читали:
    Первый Канал - Сергей Быстрицкий, Олег Куценко, Александр Хотченков и Людмила Шувалова.
    НТВ - Рудольф Панков и Ирина Маликова.-Рейтинг

    MPAA: PG-13 - Детям до 13 лет просмотр не желателен.-.-Качество видео: DVDRip
    Формат видео: AVI -> //SAMPLE//
    Видео: XviD, 720x304 (2,35:1), 25.000 fps, 1645 kbps avg
    Аудио:
    1 - 48 khz, AC3 Dolby Digital, 2/0 (L,R) ch, ~192 kbps [Первый Канал] VHSRip
    2 - 48 khz, AC3 Dolby Digital, 2/0 (L,R) ch, ~192 kbps [НТВ] VHSRip
    2 - 48 khz, AC3 Dolby Digital, 2/0 (L,R) ch, ~192 kbps [Визгунов] VHSRip
    2 - 48 khz, AC3 Dolby Digital, 2/0 (L,R) ch, ~192 kbps [Дольский] VHSRip отдельным файлом
    2 - 48 khz, AC3 Dolby Digital, 2/0 (L,R) ch, ~192 kbps [Живов] VHSRip отдельным файлом
    2 - 48 khz, AC3 Dolby Digital, 2/0 (L,R) ch, ~192 kbps [Сонькин] VHSRip отдельным файлом-Обновление релиза от 16.02.2015. Причины:
    BDRip заменён на DVDRip от международной версии фильма;
    Добавлен в раздачу перевод Первого Канала, которого до этого в сети нигде не было.

    Просьба перескачать торрент!

    Mediainfo

    Общее
    Полное имя : D:\Релизы На Трекере\Проект А 2 (Первый Канал + НТВ + Визгунов + Дольский + Живов + Сонькин)\Проект А 2 (Первый Канал + НТВ + Визгунов).avi
    Формат : AVI
    Формат/Информация : Audio Video Interleave
    Размер файла : 1,46 Гбайт
    Продолжительность : 1 ч. 33 м.
    Общий поток : 2240 Кбит/сек
    Программа кодирования : VirtualDubMod 1.5.10.2 (build 2540/release)
    Библиотека кодирования : VirtualDubMod build 2540/release
    Видео
    Идентификатор : 0
    Формат : MPEG-4 Visual
    Профиль формата : Advanced Simple@L5
    Параметр BVOP формата : 1
    Параметр QPel формата : Нет
    Параметр GMC формата : Без точки перехода
    Параметр матрицы формата : Выборочная
    Идентификатор кодека : XVID
    Идентификатор кодека/Подсказка : XviD
    Продолжительность : 1 ч. 33 м.
    Битрейт : 1645 Кбит/сек
    Ширина : 720 пикселей
    Высота : 304 пикселя
    Соотношение сторон : 2,35:1
    Частота кадров : 25,000 кадров/сек
    Цветовое пространство : YUV
    Субдискретизация насыщенности : 4:2:0
    Битовая глубина : 8 бит
    Тип развёртки : Прогрессивная
    Метод сжатия : С потерями
    Бит/(Пиксели*Кадры) : 0.301
    Размер потока : 1,07 Гбайт (73%)
    Библиотека кодирования : XviD 1.2.1 (UTC 2008-12-04)
    Аудио #1
    Идентификатор : 1
    Формат : AC-3
    Формат/Информация : Audio Coding 3
    Расширение режима : CM (complete main)
    Параметр Endianness формата : Big
    Идентификатор кодека : 2000
    Продолжительность : 1 ч. 33 м.
    Вид битрейта : Постоянный
    Битрейт : 192 Кбит/сек
    Каналы : 2 канала
    Расположение каналов : Front: L R
    Частота : 48,0 КГц
    Битовая глубина : 16 бит
    Метод сжатия : С потерями
    Размер потока : 128 Мбайт (9%)
    Выравнивание : Разделение по промежуткам
    Продолжительность промежутка : 40 мс. (1,00 видеокадр)
    Время предзагрузки промежутка : 500 мс.
    Аудио #2
    Идентификатор : 2
    Формат : AC-3
    Формат/Информация : Audio Coding 3
    Расширение режима : CM (complete main)
    Параметр Endianness формата : Big
    Идентификатор кодека : 2000
    Продолжительность : 1 ч. 33 м.
    Вид битрейта : Постоянный
    Битрейт : 192 Кбит/сек
    Каналы : 2 канала
    Расположение каналов : Front: L R
    Частота : 48,0 КГц
    Битовая глубина : 16 бит
    Метод сжатия : С потерями
    Размер потока : 128 Мбайт (9%)
    Выравнивание : Разделение по промежуткам
    Продолжительность промежутка : 40 мс. (1,00 видеокадр)
    Время предзагрузки промежутка : 500 мс.
    Аудио #3
    Идентификатор : 3
    Формат : AC-3
    Формат/Информация : Audio Coding 3
    Расширение режима : CM (complete main)
    Параметр Endianness формата : Big
    Идентификатор кодека : 2000
    Продолжительность : 1 ч. 33 м.
    Вид битрейта : Постоянный
    Битрейт : 192 Кбит/сек
    Каналы : 2 канала
    Расположение каналов : Front: L R
    Частота : 48,0 КГц
    Битовая глубина : 16 бит
    Метод сжатия : С потерями
    Размер потока : 128 Мбайт (9%)
    Выравнивание : Разделение по промежуткам
    Продолжительность промежутка : 40 мс. (1,00 видеокадр)
    Время предзагрузки промежутка : 500 мс.

    Скриншот c названием фильма

    Скриншоты

    Скачать .torrent

    Скачать торрент-файл бесплатно и на максимальной скорости!

    Как скачивать? · Что такое торрент? · Рейтинг и ограничения

    !ВНИМАНИЕ!
    Сайт не распространяет и не хранит электронные версии произведений, а занимается лишь лишь предоставлением доступа к создаваемому пользователями каталогу ссылок на торрент-файлы, которые содержат только списки хеш-сумм, убедительная просьба с жалобами обращаться напрямую к пользователю. Файлы для обмена на трекере предоставлены пользователями сайта, и администрация не несёт ответственности за их содержание. Просьба не заливать файлы, защищенные авторскими правами, а также файлы нелегального содержания!


    _________________
    [Профиль] [ЛС]
    Показать сообщения:    
    Ответить на тему

    Текущее время: Сегодня, в 20:39

    Часовой пояс: GMT + 2



    Вы не можете начинать темы
    Вы не можете отвечать на сообщения
    Вы не можете редактировать свои сообщения
    Вы не можете удалять свои сообщения
    Вы не можете голосовать в опросах
    Вы не можете прикреплять файлы к сообщениям
    Вы не можете скачивать файлы