BitTorrentTracker PerecTracker.org
BitTorrentTracker PerecTracker.org
    
Регистрация  ·  Вход
 
 · 
Забыли пароль?

  • Век Адалин / The Age of Adaline (Ли Толанд Кригер / Lee Toland Krieger) [2015, США, Драма, Мелодрама, WEB-DLRip] Dub (Звук с TS)

    Ответить на тему
     
    Автор Сообщение

    rechyn

    Создавать темы 12-Июн-2015 17:40

           

    [Цитировать]

    Век Адалин / The Age of Adaline
    Страна: США
    Жанр: Драма, Мелодрама
    Год выпуска: 2015
    Продолжительность: 01:52:42
    Перевод: Профессиональный многоголосый (дублированный) Звук с TS
    Cубтитры: нет
    Режиссер: Ли Толанд Кригер / Lee Toland Krieger
    В ролях: Блейк Лайвли, Михил Хаушман, Кэти Бейкер, Харрисон Форд, Эллен Бёрстин, Аманда Крю, Линда Бойд, Хью Росс, Ричард Хэрмон, Фульвио Чечере, Анджали Джай, Хиро Канагава
    Описание: По сюжету главная героиня родилась вместе с XX веком и живет на свете уже сто лет, но при этом не стареет. Несмотря на свою долгую жизнь, Адалин так и не смогла найти любимого человека. Однако наконец-то она встречает мужчину, ради которого сможет снова стать смертной и состариться вместе с ним.
    Сэмпл: http://sendfile.su/1124241
    Качество видео: WEB-DLRip
    Формат видео: AVI
    Видео:кодек: Xvid, Битрейт видео: ~1649 Кбит/сек, Размер кадра: 720x304
    Аудио: кодек: AC3 2.0, Битрейт аудио: 192 Кбит/сек

    MediaInfo

    [img]Общее
    Полное имя : E:\Век Адалин.2015.Dt.WEB-DLRip.avi
    Формат : AVI
    Формат/Информация : Audio Video Interleave
    Размер файла : 1,46 Гбайт
    Продолжительность : 1 ч. 52 м.
    Общий поток : 1850 Кбит/сек
    Название фильма : The.Age.of.Adaline.2015.WEB-DLRip.ELEKTRI4KA.uniongang.tv
    Программа кодирования : VirtualDubMod 1.5.10.3 | www.virtualdub-fr.org || (build 2550/release)
    Авторское право : UNIONGANG&RUSTORRENTS
    Видео
    Идентификатор : 0
    Формат : MPEG-4 Visual
    Профиль формата : Advanced Simple@L5
    Параметр BVOP формата : 2
    Параметр QPel формата : Нет
    Параметр GMC формата : Без точки перехода
    Параметр матрицы формата : Default (MPEG)
    Режим смешивания : Сжатый битовый поток
    Идентификатор кодека : XVID
    Идентификатор кодека/Подсказка : XviD
    Продолжительность : 1 ч. 52 м.
    Битрейт : 1649 Кбит/сек
    Ширина : 720 пикселей
    Высота : 304 пикселя
    Соотношение сторон : 2,35:1
    Частота кадров : 24,000 кадра/сек
    Цветовое пространство : YUV
    Субдискретизация насыщенности : 4:2:0
    Битовая глубина : 8 бит
    Тип развёртки : Прогрессивная
    Метод сжатия : С потерями
    Бит/(Пиксели*Кадры) : 0.314
    Размер потока : 1,30 Гбайт (89%)
    Библиотека кодирования : XviD 73
    Аудио
    Идентификатор : 1
    Формат : AC-3
    Формат/Информация : Audio Coding 3
    Расширение режима : CM (complete main)
    Параметр Endianness формата : Big
    Идентификатор кодека : 2000
    Продолжительность : 1 ч. 52 м.
    Вид битрейта : Постоянный
    Битрейт : 192 Кбит/сек
    Каналы : 2 канала
    Расположение каналов : Front: L R
    Частота : 48,0 КГц
    Метод сжатия : С потерями
    Размер потока : 155 Мбайт (10%)
    Выравнивание : Разделение по промежуткам
    Продолжительность промежутка : 42 мс. (1,00 видеокадр)
    Время предзагрузки промежутка : 500 мс.

    Скриншот c названием фильма

    Скриншоты







    Скачать .torrent

    Скачать торрент-файл бесплатно и на максимальной скорости!

    Как скачивать? · Что такое торрент? · Рейтинг и ограничения

    !ВНИМАНИЕ!
    Сайт не распространяет и не хранит электронные версии произведений, а занимается лишь лишь предоставлением доступа к создаваемому пользователями каталогу ссылок на торрент-файлы, которые содержат только списки хеш-сумм, убедительная просьба с жалобами обращаться напрямую к пользователю. Файлы для обмена на трекере предоставлены пользователями сайта, и администрация не несёт ответственности за их содержание. Просьба не заливать файлы, защищенные авторскими правами, а также файлы нелегального содержания!


    _________________
    [Профиль] [ЛС]
    Показать сообщения:    
    Ответить на тему

    Текущее время: Сегодня, в 10:39

    Часовой пояс: GMT + 2



    Вы не можете начинать темы
    Вы не можете отвечать на сообщения
    Вы не можете редактировать свои сообщения
    Вы не можете удалять свои сообщения
    Вы не можете голосовать в опросах
    Вы не можете прикреплять файлы к сообщениям
    Вы не можете скачивать файлы