BitTorrentTracker PerecTracker.org
BitTorrentTracker PerecTracker.org
    
Регистрация  ·  Вход
 
 · 
Забыли пароль?

  • Дорога на Берлин (Сергей Попов) [2015, военный, драма, BDRip]

    Ответить на тему
     
    Автор Сообщение

    rechyn

    Создавать темы 11-Июн-2015 18:30

           

    [Цитировать]

    Дорога на Берлин

    «Когда дороги не выбирают»
    -Жанр: военный, драма
    Год выпуска: 2015
    Продолжительность: 01:25:48-Режиссёр: Сергей Попов-В ролях: Юрий Борисов, Амир Абдыкалыков, Мария Карпова, Максим Демченко, Александр Новик, Артем Лебедев, Андрей Дерюгин...-Описание: Действие фильма происходит в Великую Отечественную войну. Главные герои — лейтенант Огарков и рядовой Джурабаев — молодые люди, выходцы из разных союзных республик, разные по характеру и жизненным позициям, но объединенные общей целью. В основе фильма лежат их сложные отношения и поступки, продиктованные фоном страшных событий войны. Это история о человеческих взаимоотношениях, истинных нравственных ценностях, долге перед Родиной, близкими и самим собой.--Качество видео: BDRip | Blu-Ray 1080p |
    Формат видео: AVI
    Видео: 720x384, 23.976 fps, XviD build 73 ~1983 kbps avg, 0.30 bit/pixel
    Аудио: 48 kHz, AC3 Dolby Digital, 3/2 (L,C,R,l,r) + LFE ch, ~448.00 kbps
    -

    Дополнительно о фильме:

    Производство, студия дубляжа, прокат:

    MediaInfo

    General
    Complete name : Doroga.Na.Berlin.By_Flash.avi
    Format : AVI
    Format/Info : Audio Video Interleave
    File size : 1.46 GiB
    Duration : 1h 25mn
    Overall bit rate : 2 441 Kbps
    Writing application : VirtualDubMod 1.5.10.3 | www.virtualdub-fr.org || (build 2550/release)
    Writing library : VirtualDubMod build 2550/release
    Video
    ID : 0
    Format : MPEG-4 Visual
    Format profile : Advanced Simple@L5
    Format settings, BVOP : 1
    Format settings, QPel : No
    Format settings, GMC : No warppoints
    Format settings, Matrix : Custom
    Codec ID : XVID
    Codec ID/Hint : XviD
    Duration : 1h 25mn
    Bit rate : 1 983 Kbps
    Width : 720 pixels
    Height : 384 pixels
    Display aspect ratio : 1.85:1
    Frame rate : 23.976 fps
    Color space : YUV
    Chroma subsampling : 4:2:0
    Bit depth : 8 bits
    Scan type : Progressive
    Compression mode : Lossy
    Bits/(Pixel*Frame) : 0.299
    Stream size : 1.19 GiB (81%)
    Writing library : XviD 73
    Audio
    ID : 1
    Format : AC-3
    Format/Info : Audio Coding 3
    Mode extension : CM (complete main)
    Format settings, Endianness : Big
    Codec ID : 2000
    Duration : 1h 25mn
    Bit rate mode : Constant
    Bit rate : 448 Kbps
    Channel(s) : 6 channels
    Channel positions : Front: L C R, Side: L R, LFE
    Sampling rate : 48.0 KHz
    Bit depth : 16 bits
    Compression mode : Lossy
    Stream size : 275 MiB (18%)
    Alignment : Split accross interleaves
    Interleave, duration : 42 ms (1.00 video frame)
    Interleave, preload duration : 500 ms

    Скриншот c названием фильма

    Скриншоты

    Скачать .torrent

    Скачать торрент-файл бесплатно и на максимальной скорости!

    Как скачивать? · Что такое торрент? · Рейтинг и ограничения

    !ВНИМАНИЕ!
    Сайт не распространяет и не хранит электронные версии произведений, а занимается лишь лишь предоставлением доступа к создаваемому пользователями каталогу ссылок на торрент-файлы, которые содержат только списки хеш-сумм, убедительная просьба с жалобами обращаться напрямую к пользователю. Файлы для обмена на трекере предоставлены пользователями сайта, и администрация не несёт ответственности за их содержание. Просьба не заливать файлы, защищенные авторскими правами, а также файлы нелегального содержания!


    _________________
    [Профиль] [ЛС]
    Показать сообщения:    
    Ответить на тему

    Текущее время: Сегодня, в 10:18

    Часовой пояс: GMT + 2



    Вы не можете начинать темы
    Вы не можете отвечать на сообщения
    Вы не можете редактировать свои сообщения
    Вы не можете удалять свои сообщения
    Вы не можете голосовать в опросах
    Вы не можете прикреплять файлы к сообщениям
    Вы не можете скачивать файлы