BitTorrentTracker PerecTracker.org
BitTorrentTracker PerecTracker.org
    
Регистрация  ·  Вход
 
 · 
Забыли пароль?

  • Моя Русалка, Моя Лореляй / Лорелей / My Mermaid, My Lorelei (Нана Джорджадзе) [2013, Украина, Мелодрама, трагикомедия, SATRip] + Original Rus

    Ответить на тему
     
    Автор Сообщение

    Light

    Создавать темы 11-Июн-2015 14:18

           

    [Цитировать]

    Моя Русалка, Моя Лореляй / Лорелей / My Mermaid, My Lorelei
    Страна: Украина
    Жанр: Мелодрама, трагикомедия
    Год выпуска: 2013
    Продолжительность: 01:13:37
    Перевод: Не требуется
    Cубтитры: Украинские (Неотключаемые)
    Оригинальная аудиодорожка: Русский
    Режиссер: Нана Джорджадзе
    В ролях: Екатерина Молчанова, Евгений Рыба, Вячеслав Хахалкин, Александр Онищенко, Олег Скрипка, Михаил Штейншнайдер, Георгий Делиев, Валерий Бассэль, Александр Самусенко
    Описание: В диком прекрасном поселке на берегу моря рождается новая романтическая история. Ее герои - 14-летний Федор и 18-летняя Нюрка. Казалось бы, между наивным мальчишкой и местной «артисткой» ничего не могло бы быть. Однако, их обоих увлекает первое любовное чувство. Мечтательная Нюрка грезит сыграть Анжелику из любимого французского романа. Ее любовная история с Федором тоже связана с романом «Анжелика и король». Федору в своей жизни Нюрка отводит роль Николя. Их история о том, что у любви нет возраста. Чистое чувство из взрослого делает ребенка, а ребенок моментально становится взрослым. Такова природа этого волшебного чувства – пробуждать в сердце отвагу.
    Действие фильма происходит в советском приморском городке в 80-х годах прошлого века.
    Главный герой фильма, 14-летний подросток Фёдор, влюбляется в 18-летнюю Нюрку. Казалось бы, между наивным мальчишкой и местной «ночной бабочкой» ничего не могло бы быть. Однако, их обоих увлекает первое любовное чувство. Это история о том, что у любви нет возраста. Чистое чувство из взрослого делает ребенка, а ребенок быстро становится взрослым ...
    Производство: Творческое объединение "Хронограф”, ЧП Кинокомпания “Виктория”, Первое творческое объединение

    Сэмпл: https://yadi.sk/d/RG-01pr9h7dYA или http://sendfile.su/1125863
    Качество видео: SATRip
    Формат видео: AVI
    Видео: XviD, 720x400, 25.00fps, ~1909 Кбит/сек, 0.269 bit/pixel
    Аудио: MP3, 48000 Hz, stereo, 192 Кбит/сек

    MediaInfo

    Общее
    Полное имя : U:\Сериалы\Моя Русалка, Моя Лореляй (Лорелей) - My Mermaid, My Lorelei.2015.XviD.SATRip.by.simka.avi
    Формат : AVI
    Формат/Информация : Audio Video Interleave
    Размер файла : 1,09 Гбайт
    Продолжительность : 1 ч. 13 м.
    Общий поток : 2111 Кбит/сек
    Программа кодирования : VirtualDubMod 1.5.10.3 | www.virtualdub-fr.org || (build 2550/release)
    Библиотека кодирования : VirtualDubMod build 2550/release
    Видео
    Идентификатор : 0
    Формат : MPEG-4 Visual
    Профиль формата : Advanced Simple@L5
    Параметр BVOP формата : 1
    Параметр QPel формата : Нет
    Параметр GMC формата : Без точки перехода
    Параметр матрицы формата : Default (MPEG)
    Идентификатор кодека : XVID
    Идентификатор кодека/Подсказка : XviD
    Продолжительность : 1 ч. 13 м.
    Битрейт : 1909 Кбит/сек
    Ширина : 720 пикселей
    Высота : 400 пикселей
    Соотношение сторон : 16:9
    Частота кадров : 25,000 кадров/сек
    Цветовое пространство : YUV
    Субдискретизация насыщенности : 4:2:0
    Битовая глубина : 8 бит
    Тип развёртки : Прогрессивная
    Метод сжатия : С потерями
    Бит/(Пиксели*Кадры) : 0.265
    Размер потока : 1005 Мбайт (90%)
    Библиотека кодирования : XviD 1.2.1 (UTC 2008-12-04)
    Аудио
    Идентификатор : 1
    Формат : MPEG Audio
    Версия формата : Version 1
    Профиль формата : Layer 3
    Режим : Joint stereo
    Идентификатор кодека : 55
    Идентификатор кодека/Подсказка : MP3
    Продолжительность : 1 ч. 13 м.
    Вид битрейта : Постоянный
    Битрейт : 192 Кбит/сек
    Каналы : 2 канала
    Частота : 48,0 КГц
    Метод сжатия : С потерями
    Размер потока : 101 Мбайт (9%)
    Выравнивание : Соединение по промежуткам
    Продолжительность промежутка : 40 мс. (1,00 видеокадр)
    Время предзагрузки промежутка : 504 мс.
    Библиотека кодирования : LAME3.99r
    Настройки программы : -m j -V 4 -q 2 -lowpass 18.6 -b 192

    Скриншот c названием фильма

    Скриншоты


    -
    Релиз группы::

    Постер 2

    Скачать .torrent

    Скачать торрент-файл бесплатно и на максимальной скорости!

    Как скачивать? · Что такое торрент? · Рейтинг и ограничения

    !ВНИМАНИЕ!
    Сайт не распространяет и не хранит электронные версии произведений, а занимается лишь лишь предоставлением доступа к создаваемому пользователями каталогу ссылок на торрент-файлы, которые содержат только списки хеш-сумм, убедительная просьба с жалобами обращаться напрямую к пользователю. Файлы для обмена на трекере предоставлены пользователями сайта, и администрация не несёт ответственности за их содержание. Просьба не заливать файлы, защищенные авторскими правами, а также файлы нелегального содержания!


    _________________
    [Профиль] [ЛС]
    Показать сообщения:    
    Ответить на тему

    Текущее время: Сегодня, в 07:05

    Часовой пояс: GMT + 2



    Вы не можете начинать темы
    Вы не можете отвечать на сообщения
    Вы не можете редактировать свои сообщения
    Вы не можете удалять свои сообщения
    Вы не можете голосовать в опросах
    Вы не можете прикреплять файлы к сообщениям
    Вы не можете скачивать файлы