BitTorrentTracker PerecTracker.org
BitTorrentTracker PerecTracker.org
    
Регистрация  ·  Вход
 
 · 
Забыли пароль?

  • ДОстояние РЕспублики - Алла Пугачева [2013 г., Pop, HDTV, 1080i]

    Ответить на тему
     
    Автор Сообщение

    Columb

    Создавать темы 20-Апр-2013 14:30

           

    [Цитировать]

    ДОстояние РЕспублики - Алла Пугачева
    Страна: Россия
    Жанр: Pop
    Продолжительность: 02:04:48
    Год выпуска: 2013 г.
    Ведущие: Юрий Николаев и Дмитрий Шепелев
    Описание: Новый сезон «ДОстояния РЕспублики» будет посвящен не эпохам, а людям. Людям, создавшим любимые песни. И если победителей в прошлом сезоне определяли эксперты от младшего и старшего поколений жюри, то теперь выбор сделают телезрители. Именно им предстоит выбрать лучшую песню каждого из героев «Достояния». Герой программы расскажет самые интересные истории, связанные со своими песнями, отрецензирует их новое исполнение и, конечно, сам выйдет на сцену, чтобы спеть несколько хитов. И ещe о новинках. У нас появилась «свободная трибуна», состоящая из простых людей и приглашeнных журналистов. У них есть своe мнение и, часто, не самое лицеприятное. Тем интереснее полемика между ними и друзьями главного героя «ДоРе».
    В этом выпуске: В шоу "ДОстояние РЕспублики" примадонна нашей эстрады - Алла Пугачева, певица, продюсер, автор песен и киноактриса. В программе прозвучат самые любимые песни из репертуара Аллы Пугачевой, каждую из которых исполнит популярный артист или группа: "Без меня" Филипп Киркоров, "Арлекино" Максим Галкин, "Белая панама" Кристина Орбакайте, "Так же, как все" группа "А’студио", "Уж сколько их упало в эту бездну" Лолита, "Не отрекаются любя" Дмитрий Билан, "Паромщик" Таисия Повалий, "Расскажите, птицы" Игорь Николаев, "Золотая карусель" Владимир Кузьмин и Софья Кузьмин, Рим "Ты на свете есть", "Позови меня с собой" Татьяна Буланова, "Миллион алых роз" Ани Лорак, "Как тревожен этот путь" Ольга Кормухина, "Вагончик тронется" группа "Город 312" Алла Пугачева расскажет интересные истории, связанные с написанием этих песен, отрецензирует их новое исполнение и, конечно, сам выйдет на сцену, чтобы спеть несколько хитов.
    Алла Пугачева: "Я благодарна всем тем, кто пришел на эту программу, благодарна всем зрителям, которые будут смотреть и оценивать. Конечно же, песен много, почти сто. И самая главная сложность была в выборе тех песен, которые прозвучат сегодня. Я предоставила эту возможность создателям программы. Поэтому, для меня сегодня все будет сюрпризом, каждую минуту".
    Треклист:
    01. Максим Галкин - "Арлекино";
    02. Игорь Николаев - "Расскажите, птицы";
    03. Филипп Киркоров - "Без меня";
    04. Ани Лорак - "Миллион алых роз";
    05. Кристина Орбакайте - "Белая панама";
    06. Дима Билан - "Не отрекаются любя";
    07. Город 312 - "На тихорецкую";
    08. Владимир и Софья Кузьмины - "Белые цветы (Золотая карусель)";
    09. Таисия Повалий - "Паромщик";
    10. Группа «А’студио» - "Песенка про меня";
    11. Ольга Кормухина - "Как тревожен этот путь";
    12. Рим - "Ты на свете есть";
    13. Татьяна Буланова - "Позови меня с собой";
    14. Лолита - "Монолог";
    15. Никита и Владимир Пресняковы - "Этот мир"
    Источник: mydimka
    Доп. информация: Релиз -

    Рип чистый. Без посторонних надписей. Выкладывается как есть.
    Качество: HDTV 1080i
    Контейнер: TS
    Видео кодек: AVC
    Аудио кодек: AC3
    Видео: 1920x1080 (16:9) 25.000 fps 7 838 Kbps, 0.151 bit/pixel
    Аудио: MPEG Audio 48000Hz stereo 192 Кбит/сек

    Скриншоты





    Скринлист

    MI

    General
    ID : 1 (0x1)
    Complete name : J:\ВЫКЛАДКА\HDTV\Музыка\ДОстояние РЕспублики - Алла Пугачева (Pop, 2013, HDTV 1080i) (MYDIMKA).ts
    Format : MPEG-TS
    File size : 7.39 GiB
    Duration : 2h 4mn
    Overall bit rate mode : Variable
    Overall bit rate : 8 477 Kbps
    Video
    ID : 2931 (0xB73)
    Menu ID : 1 (0x1)
    Format : AVC
    Format/Info : Advanced Video Codec
    Format profile : High@L4.0
    Format settings, CABAC : Yes
    Format settings, ReFrames : 3 frames
    Codec ID : 27
    Duration : 2h 4mn
    Bit rate : 7 864 Kbps
    Width : 1 920 pixels
    Height : 1 080 pixels
    Display aspect ratio : 16:9
    Frame rate : 25.000 fps
    Color space : YUV
    Chroma subsampling : 4:2:0
    Bit depth : 8 bits
    Scan type : MBAFF
    Bits/(Pixel*Frame) : 0.152
    Stream size : 6.86 GiB (93%)
    Audio
    ID : 2932 (0xB74)
    Menu ID : 1 (0x1)
    Format : MPEG Audio
    Format version : Version 1
    Format profile : Layer 2
    Mode : Joint stereo
    Mode extension : Intensity Stereo + MS Stereo
    Codec ID : 3
    Duration : 2h 4mn
    Bit rate mode : Constant
    Bit rate : 192 Kbps
    Channel(s) : 2 channels
    Sampling rate : 48.0 KHz
    Compression mode : Lossy
    Stream size : 171 MiB (2%)
    Language : Russian
    Text
    ID : 2934 (0xB76)-888
    Menu ID : 1 (0x1)
    Format : Teletext Subtitle
    Language : Russian
    Menu
    ID : 2930 (0xB72)
    Menu ID : 1 (0x1)
    Duration : 2h 4mn
    List : 2931 (0xB73) (AVC) / 2932 (0xB74) (MPEG Audio, Russian) / 2934 (0xB76) ()
    Language : / Russian
    Скачать .torrent

    Скачать торрент-файл бесплатно и на максимальной скорости!

    Как скачивать? · Что такое торрент? · Рейтинг и ограничения

    !ВНИМАНИЕ!
    Сайт не распространяет и не хранит электронные версии произведений, а занимается лишь лишь предоставлением доступа к создаваемому пользователями каталогу ссылок на торрент-файлы, которые содержат только списки хеш-сумм, убедительная просьба с жалобами обращаться напрямую к пользователю. Файлы для обмена на трекере предоставлены пользователями сайта, и администрация не несёт ответственности за их содержание. Просьба не заливать файлы, защищенные авторскими правами, а также файлы нелегального содержания!

    [Профиль] [ЛС]
    Показать сообщения:    
    Ответить на тему

    Текущее время: Сегодня, в 06:05

    Часовой пояс: GMT + 2



    Вы не можете начинать темы
    Вы не можете отвечать на сообщения
    Вы не можете редактировать свои сообщения
    Вы не можете удалять свои сообщения
    Вы не можете голосовать в опросах
    Вы не можете прикреплять файлы к сообщениям
    Вы не можете скачивать файлы