BitTorrentTracker PerecTracker.org
BitTorrentTracker PerecTracker.org
    
Регистрация  ·  Вход
 
 · 
Забыли пароль?

  • Куда идешь, солдат? (Юрий Ерзинкян) [1985, драма, VHSRip]

    Ответить на тему
     
    Автор Сообщение

    Light

    Создавать темы 11-Июн-2015 10:06

           

    [Цитировать]

    Куда идешь, солдат?
    Жанр: драма
    Год выпуска: 1985
    Продолжительность: 01:21:14
    Режиссёр: Юрий Ерзинкян
    В ролях: Азат Гаспарян, Екатерина Григорьева, Рубен Мкртчян, Ашот Адамян, Гуж Манукян, Арцруни Манукян, Ашот Геворкян, Татьяна Бовкалова, Александр Аржиловский, Александр Беспалый, Галина Макарова, Павел Кормунин
    Описание: Когда началась война, все шестеро мужчин рода Оганянов начали службу в одном взводе. Попав на запад России, охваченной пожаром первых суровых военных дней войны, крестьяне были вынуждены одновременно и изучать русский язык и овладевать солдатским ремеслом. Отряд Оганянов прошел через первые бомбежки, отступления и атаки. Но чем дальше на Запад уходили братья, тем меньше их оставалось. До Берлина дошли только двое — Егиш и Дереник. И теперь, когда самое страшное было уже позади, Егиш Оганян возвращался в свою далекую Армению и вез удочеренную им семилетнюю Машу Павлову, дочь погибшей однополчанки.
    Доп. информация: Арменфильм
    17 января 1986 (Ереван), май 1986 (Москва)
    Семпл: https://www.sendspace.com/file/kop5jt
    Качество видео: VHSRip
    Формат видео: AVI
    Видео: 640x464 (1.38:1),25 fps,XviD build 50,1609 kbps avg,0.22 bit/pixel
    Аудио: 44.100 kHz,MPEG Layer 3,2 ch,128.00 kbps avg

    MediaInfo

    Общее
    Полное имя : E:\Куда идешь, солдат.avi
    Формат : AVI
    Формат/Информация : Audio Video Interleave
    Размер файла : 1017 Мбайт
    Продолжительность : 1 ч. 21 м.
    Общий поток : 1750 Кбит/сек
    Программа кодирования : Lavf52.93.0
    Видео
    Идентификатор : 0
    Формат : xvid
    Идентификатор кодека : xvid
    Продолжительность : 1 ч. 21 м.
    Битрейт : 1610 Кбит/сек
    Ширина : 640 пикселей
    Высота : 464 пикселя
    Соотношение сторон : 1,379
    Частота кадров : 25,000 кадров/сек
    Бит/(Пиксели*Кадры) : 0.217
    Размер потока : 936 Мбайт (92%)
    Аудио
    Идентификатор : 1
    Формат : MPEG Audio
    Версия формата : Version 1
    Профиль формата : Layer 3
    Режим : Joint stereo
    Расширение режима : MS Stereo
    Идентификатор кодека : 55
    Идентификатор кодека/Подсказка : MP3
    Продолжительность : 1 ч. 21 м.
    Вид битрейта : Постоянный
    Битрейт : 128 Кбит/сек
    Каналы : 2 канала
    Частота : 44,1 КГц
    Метод сжатия : С потерями
    Размер потока : 74,4 Мбайт (7%)
    Выравнивание : Соединение по промежуткам
    Продолжительность промежутка : 26 мс. (0,65 видеокадр)
    Время предзагрузки промежутка : 26 мс.
    Библиотека кодирования : LAME3.98.4

    Скриншоты

    Скачать .torrent

    Скачать торрент-файл бесплатно и на максимальной скорости!

    Как скачивать? · Что такое торрент? · Рейтинг и ограничения

    !ВНИМАНИЕ!
    Сайт не распространяет и не хранит электронные версии произведений, а занимается лишь лишь предоставлением доступа к создаваемому пользователями каталогу ссылок на торрент-файлы, которые содержат только списки хеш-сумм, убедительная просьба с жалобами обращаться напрямую к пользователю. Файлы для обмена на трекере предоставлены пользователями сайта, и администрация не несёт ответственности за их содержание. Просьба не заливать файлы, защищенные авторскими правами, а также файлы нелегального содержания!


    _________________
    [Профиль] [ЛС]
    Показать сообщения:    
    Ответить на тему

    Текущее время: Сегодня, в 04:17

    Часовой пояс: GMT + 2



    Вы не можете начинать темы
    Вы не можете отвечать на сообщения
    Вы не можете редактировать свои сообщения
    Вы не можете удалять свои сообщения
    Вы не можете голосовать в опросах
    Вы не можете прикреплять файлы к сообщениям
    Вы не можете скачивать файлы