BitTorrentTracker PerecTracker.org
BitTorrentTracker PerecTracker.org
    
Регистрация  ·  Вход
 
 · 
Забыли пароль?

  • Шафер напрокат / The Wedding Ringer (Джереми Гарелик / Jeremy Garelick ) [2015, США, Комедия, BDRip, HD (720p)] DUB + Original + sub (rus, eng)

    Ответить на тему
     
    Автор Сообщение

    rechyn

    Создавать темы 11-Июн-2015 05:54

           

    [Цитировать]

    Шафер напрокат / The Wedding Ringer
    «Doug needs a best man, in the worst way. Jimmy is the best friend money can buy. But sometimes when you buy a friend, there's a price to be paid...»
    6.760 / 10 6.70 / 10
    -Год выпуска: 2015
    Страна: США
    Жанр: Комедия
    Продолжительность: 01:41:26
    Перевод: Дублированный (iTunes)
    Оригинальная аудиодорожка: Есть
    Cубтитры: Русские, Английские
    Режиссёр: Джереми Гарелик
    Сценарий: Джереми Гарелик, Джей Лавендер
    Продюсер: Адам Филдс, Уильям Пэкер, Крис Бремнер
    Оператор: Брэдфорд Липсон
    Композитор: Кристофер Леннерц
    Художник: Крис Корнвэлл, Чарли Кэмпбелл, Женевьева Тиррелл
    Монтаж: Джефф Грот, Шелли Вестерман, Байрон Вонг
    В ролях: Кевин Харт, Джош Гад, Кейли Куоко-Суитинг, Эффион Крокетт, Хорхе Гарсиа, Дэн Гилл, Кори Холкомб, Кен Ховард, Колин Кэйн, Клорис Личмен
    Бюджет: $23 000 000
    Сборы в США: $64 460 211
    Сборы в мире: + $15 339 669 = $79 799 880
    Мировая премьера: 14 января 2015
    Релиз на DVD: 7 мая 2015, «CP Дистрибуция»
    Описание: Главный герой женится на девушке своей мечты. Он купил кольца и смокинг, оплатил шикарный ресторан, но для идеальной церемонии не хватает маленькой детали — друзей жениха. Эту «услугу» он находит в специальном агентстве, где напрокат получает целый комплект «друзей»… Пройдет ли теперь подготовка и сама свадьба идеально?-Качество исходника: BDRemux (Кинозал)
    Качество: BDRip
    Тип: HD (720p)
    Контейнер: M4V
    Видео: H.264, 1280x536, 2.40:1, 3 500 Kbps, 23.976 fps
    Аудио 1: Русский/Дублированный (iTunes), AAC / 2.0 / 157 Kbps / 48.0 KHz
    Аудио 2: Английский/Оригинальная дорожка , AAC / 2.0 / 157 Kbps / 48.0 KHz
    Аудио 3: Русский/Дублированный (iTunes), AC-3 / 5.1 / 384 Kbps / 48.0 KHz
    Аудио 4: Английский/Оригинальная дорожка , AC-3 / 5.1 / 640 Kbps / 48.0 KHz
    Субтитры 1: Русские полные
    Субтитры 2: Английские полные
    -

    iTunes Meta Tags

    Sort Name: Wedding Ringer
    XID: Apple:vendor_id:2015-464281
    contentID: 955674850
    Screenwriters: Джереми Гарелик, Джей Лавендер
    Producers: Адам Филдс, Уильям Пэкер, Крис Бремнер
    Director: Джереми Гарелик
    Cast: Кевин Харт, Джош Гад, Кейли Куоко-Суитинг, Эффион Крокетт, Хорхе Гарсиа, Дэн Гилл, Кори Холкомб, Кен Ховард, Колин Кэйн, Клорис Личмен, Пётр Иващенко, Михаил Тихонов, Евгения Ваган, Анастасия Лапина, Даниил Эльдаров
    Studio: Miramax Films; Screen Gems
    Rating: 11
    Long Description: Главный герой женится на девушке своей мечты. Он купил кольца и смокинг, оплатил шикарный ресторан, но для идеальной церемонии не хватает маленькой детали - друзей жениха. Эту "услугу" он находит в специальном агентстве, где напрокат получает целый комплект "друзей"... Пройдет ли теперь подготовка и сама свадьба идеально?
    Description: Главный герой женится на девушке своей мечты. Он купил кольца и смокинг, оплатил шикарный ресторан, но для идеальной церемонии не хватает маленькой детали - друзей жениха.
    Release Date: 2015-01-14T08:00:00Z
    Genre: Comedy
    Artist: Jeremy Garelick
    Name: The Wedding Ringer

    MediaInfo

    General
    Complete name                            : /Users/imac/HandBrake/The Wedding Ringer (720p HD).m4v
    Format                                   : MPEG-4
    Codec ID                                 : M4V
    File size                                : 3.43 GiB
    Duration                                 : 1h 41mn
    Overall bit rate mode                    : Variable
    Overall bit rate                         : 4 842 Kbps
    Movie name                               : The Wedding Ringer
    Performer                                : Jeremy Garelick
    Genre                                    : Comedy
    Recorded date                            : UTC 2015-01-14 08:00:00
    Encoded date                             : UTC 2015-06-10 22:55:50
    Tagged date                              : UTC 2015-06-10 22:58:02
    Cover                                    : Yes
    sonm                                     : Wedding Ringer
    desc                                     : Главный герой женится на девушке своей мечты. Он купил кольца и смокинг, оплатил шикарный ресторан, но для идеальной церемонии не хватает маленькой детали - друзей жениха.
    ldes                                     : Главный герой женится на девушке своей мечты. Он купил кольца и смокинг, оплатил шикарный ресторан, но для идеальной церемонии не хватает маленькой детали - друзей жениха. Эту "услугу" он находит в специальном агентстве, где напрокат получает целый комплект "друзей"... Пройдет ли теперь подготовка и сама свадьба идеально?
    hdvd                                     : 1
    stik                                     : 9
    rtng                                     : 0
    cnID                                     : 955674850
    xid                                      : Apple:vendor_id:2015-464281
    iTunEXTC                                 : mpaa|R|400|
    iTunMOVI                                 : <?xml version=\"1.0\" encoding=\"UTF-8\"?> / <!DOCTYPE plist PUBLIC \"-//Apple//DTD PLIST 1.0//EN\" \"http://anonym.to/?http://www.apple.com/DTDs/PropertyList-1.0.dtd\"> / <plist version=\"1.0\"> / <dict> /  <key>cast</key> /  <array> /   <dict> /    <key>name</key> /    <string>Кевин Харт</string> /   </dict> /   <dict> /    <key>name</key> /    <string>Джош Гад</string> /   </dict> /   <dict> /    <key>name</key> /    <string>Кейли Куоко-Суитинг</string> /   </dict> /   <dict> /    <key>name</key> /    <string>Эффион Крокетт</string> /   </dict> /   <dict> /    <key>name</key> /    <string>Хорхе Гарсиа</string> /   </dict> /   <dict> /    <key>name</key> /    <string>Дэн Гилл</string> /   </dict> /   <dict> /    <key>name</key> /    <string>Кори Холкомб</string> /   </dict> /   <dict> /    <key>name</key> /    <string>Кен Ховард</string> /   </dict> /   <dict> /    <key>name</key> /    <string>Колин Кэйн</string> /   </dict> /   <dict> /    <key>name</key> /    <string>Клорис Личмен</string> /   </dict> /   <dict> /    <key>name</key> /    <string>Пётр Иващенко</string> /   </dict> /   <dict> /    <key>name</key> /    <string>Михаил Тихонов</string> /   </dict> /   <dict> /    <key>name</key> /    <string>Евгения Ваган</string> /   </dict> /   <dict> /    <key>name</key> /    <string>Анастасия Лапина</string> /   </dict> /   <dict> /    <key>name</key> /    <string>Даниил Эльдаров</string> /   </dict> /  </array> /  <key>directors</key> /  <array> /   <dict> /    <key>name</key> /    <string>Джереми Гарелик</string> /   </dict> /  </array> /  <key>producers</key> /  <array> /   <dict> /    <key>name</key> /    <string>Адам Филдс</string> /   </dict> /   <dict> /    <key>name</key> /    <string>Уильям Пэкер</string> /   </dict> /   <dict> /    <key>name</key> /    <string>Крис Бремнер</string> /   </dict> /  </array> /  <key>screenwriters</key> /  <array> /   <dict> /    <key>name</key> /    <string>Джереми Гарелик</string> /   </dict> /   <dict> /    <key>name</key> /    <string>Джей Лавендер</string> /   </dict> /  </array> /  <key>studio</key> /  <string>Miramax Films; Screen Gems</string> / </dict> / </plist>
    Video #1
    ID                                       : 1
    Format                                   : AVC
    Format/Info                              : Advanced Video Codec
    Format profile                           : High@L3.1
    Format settings, CABAC                   : No
    Format settings, ReFrames                : 3 frames
    Codec ID                                 : avc1
    Codec ID/Info                            : Advanced Video Coding
    Duration                                 : 1h 41mn
    Bit rate mode                            : Variable
    Bit rate                                 : 3 500 Kbps
    Width                                    : 1 280 pixels
    Height                                   : 536 pixels
    Display aspect ratio                     : 2.40:1
    Frame rate mode                          : Variable
    Frame rate                               : 23.976 fps
    Minimum frame rate                       : 23.810 fps
    Maximum frame rate                       : 24.272 fps
    Color space                              : YUV
    Chroma subsampling                       : 4:2:0
    Bit depth                                : 8 bits
    Scan type                                : Progressive
    Bits/(Pixel*Frame)                       : 0.213
    Stream size                              : 2.48 GiB (72%)
    Writing library                          : x264 core 142 r2479 dd79a61
    Encoding settings                        : cabac=0 / ref=3 / deblock=1:-3:-3 / analyse=0x3:0x113 / me=umh / subme=9 / psy=1 / psy_rd=1.00:0.15 / mixed_ref=1 / me_range=32 / chroma_me=1 / trellis=0 / 8x8dct=1 / cqm=0 / deadzone=21,11 / fast_pskip=0 / chroma_qp_offset=-2 / threads=36 / lookahead_threads=3 / sliced_threads=0 / nr=0 / decimate=0 / interlaced=0 / bluray_compat=0 / constrained_intra=0 / bframes=3 / b_pyramid=0 / b_adapt=2 / b_bias=0 / direct=1 / weightb=0 / open_gop=0 / weightp=0 / keyint=240 / keyint_min=24 / scenecut=40 / intra_refresh=0 / rc_lookahead=40 / rc=2pass / mbtree=1 / bitrate=3500 / ratetol=1.0 / qcomp=0.65 / qpmin=0 / qpmax=69 / qpstep=4 / cplxblur=20.0 / qblur=0.5 / vbv_maxrate=9500 / vbv_bufsize=9500 / nal_hrd=none / filler=0 / ip_ratio=1.40 / aq=1:1.10
    Encoded date                             : UTC 2015-06-10 22:55:50
    Tagged date                              : UTC 2015-06-10 22:55:59
    Color primaries                          : BT.709-5, BT.1361, IEC 61966-2-4, SMPTE RP177
    Transfer characteristics                 : BT.709-5, BT.1361
    Matrix coefficients                      : BT.709-5, BT.1361, IEC 61966-2-4 709, SMPTE RP177
    Video #2
    ID                                       : 9
    Format                                   : JPEG
    Codec ID                                 : jpeg
    Duration                                 : 1h 41mn
    Bit rate mode                            : Variable
    Bit rate                                 : 1 183 bps
    Width                                    : 640 pixels
    Height                                   : 268 pixels
    Display aspect ratio                     : 2.40:1
    Frame rate mode                          : Variable
    Frame rate                               : 0.003 fps
    Minimum frame rate                       : 0.002 fps
    Maximum frame rate                       : 0.005 fps
    Color space                              : YUV
    Chroma subsampling                       : 4:2:0
    Bit depth                                : 8 bits
    Compression mode                         : Lossy
    Bits/(Pixel*Frame)                       : 2.299
    Stream size                              : 770 KiB (0%)
    Encoded date                             : UTC 2015-06-10 22:56:05
    Tagged date                              : UTC 2015-06-10 22:56:05
    Audio #1
    ID                                       : 2
    Format                                   : AAC
    Format/Info                              : Advanced Audio Codec
    Format profile                           : LC
    Codec ID                                 : 40
    Duration                                 : 1h 41mn
    Bit rate mode                            : Variable
    Bit rate                                 : 157 Kbps
    Maximum bit rate                         : 227 Kbps
    Channel(s)                               : 2 channels
    Channel positions                        : Front: L R
    Sampling rate                            : 48.0 KHz
    Compression mode                         : Lossy
    Stream size                              : 114 MiB (3%)
    Language                                 : Russian
    Encoded date                             : UTC 2015-06-10 22:55:50
    Tagged date                              : UTC 2015-06-10 22:56:02
    Audio #2
    ID                                       : 3
    Format                                   : AAC
    Format/Info                              : Advanced Audio Codec
    Format profile                           : LC
    Codec ID                                 : 40
    Duration                                 : 1h 41mn
    Bit rate mode                            : Variable
    Bit rate                                 : 157 Kbps
    Maximum bit rate                         : 251 Kbps
    Channel(s)                               : 2 channels
    Channel positions                        : Front: L R
    Sampling rate                            : 48.0 KHz
    Compression mode                         : Lossy
    Stream size                              : 114 MiB (3%)
    Language                                 : English
    Encoded date                             : UTC 2015-06-10 22:55:50
    Tagged date                              : UTC 2015-06-10 22:56:02
    Audio #3
    ID                                       : 4
    Format                                   : AC-3
    Format/Info                              : Audio Coding 3
    Mode extension                           : CM (complete main)
    Format settings, Endianness              : Big
    Codec ID                                 : ac-3
    Duration                                 : 1h 41mn
    Bit rate mode                            : Constant
    Bit rate                                 : 384 Kbps
    Channel(s)                               : 6 channels
    Channel positions                        : Front: L C R, Side: L R, LFE
    Sampling rate                            : 48.0 KHz
    Bit depth                                : 16 bits
    Compression mode                         : Lossy
    Stream size                              : 279 MiB (8%)
    Language                                 : Russian
    Encoded date                             : UTC 2015-06-10 22:55:50
    Tagged date                              : UTC 2015-06-10 22:55:55
    Audio #4
    ID                                       : 5
    Format                                   : AC-3
    Format/Info                              : Audio Coding 3
    Mode extension                           : CM (complete main)
    Format settings, Endianness              : Big
    Codec ID                                 : ac-3
    Duration                                 : 1h 41mn
    Bit rate mode                            : Constant
    Bit rate                                 : 640 Kbps
    Channel(s)                               : 6 channels
    Channel positions                        : Front: L C R, Side: L R, LFE
    Sampling rate                            : 48.0 KHz
    Bit depth                                : 16 bits
    Compression mode                         : Lossy
    Stream size                              : 464 MiB (13%)
    Language                                 : English
    Encoded date                             : UTC 2015-06-10 22:55:50
    Tagged date                              : UTC 2015-06-10 22:55:55
    Text #1
    ID                                       : 6
    Format                                   : Timed text
    Muxing mode                              : sbtl
    Codec ID                                 : tx3g
    Duration                                 : 1h 41mn
    Bit rate mode                            : Variable
    Bit rate                                 : 161 bps
    Stream size                              : 120 KiB (0%)
    Language                                 : Russian
    Encoded date                             : UTC 2015-06-10 22:55:50
    Tagged date                              : UTC 2015-06-10 22:55:50
    Text #2
    ID                                       : 7
    Format                                   : Timed text
    Muxing mode                              : sbtl
    Codec ID                                 : tx3g
    Duration                                 : 1h 41mn
    Bit rate mode                            : Variable
    Bit rate                                 : 107 bps
    Stream size                              : 79.4 KiB (0%)
    Language                                 : English
    Encoded date                             : UTC 2015-06-10 22:55:50
    Tagged date                              : UTC 2015-06-10 22:55:50
    Text #3
    ID                                       : 8
    Format                                   : Apple text
    Codec ID                                 : text
    Duration                                 : 1h 41mn
    Bit rate mode                            : Constant
    Bit rate                                 : 1 bps
    Stream size                              : 416 Bytes (0%)
    Language                                 : English
    Encoded date                             : UTC 2015-06-10 22:56:02
    Tagged date                              : UTC 2015-06-10 22:56:02
    Menu
    00:00:00.000                             : 00:00:00.000
    00:08:14.119                             : 00:08:14.077
    00:13:08.580                             : 00:13:08.538
    00:19:36.718                             : 00:19:36.675
    00:23:17.521                             : 00:23:17.479
    00:27:22.600                             : 00:27:22.558
    00:33:22.459                             : 00:33:22.417
    00:40:42.065                             : 00:40:42.023
    00:47:49.992                             : 00:47:49.950
    00:53:47.683                             : 00:53:47.641
    01:01:40.948                             : 01:01:40.906
    01:07:18.910                             : 01:07:18.868
    01:12:35.310                             : 01:12:35.268
    01:19:47.950                             : 01:19:47.908
    01:27:13.020                             : 01:27:12.978
    01:35:08.245                             : 01:35:08.202

    x264 лог

    x264 [info]: frame I:2966  Avg QP:14.77  size:104341
    x264 [info]: frame P:59233 Avg QP:17.06  size: 29542
    x264 [info]: frame B:83721 Avg QP:19.19  size:  7157
    x264 [info]: consecutive B-frames:  6.2% 47.0% 14.5% 32.3%
    x264 [info]: mb I  I16..4:  6.5% 55.6% 37.9%
    x264 [info]: mb P  I16..4:  1.1%  5.2%  2.7%  P16..4: 45.0% 26.8% 11.0%  0.0%  0.0%    skip: 8.2%
    x264 [info]: mb B  I16..4:  0.1%  0.5%  0.3%  B16..8: 42.9% 11.2%  1.7%  direct: 3.2%  skip:40.1%  L0:38.7% L1:52.3% BI: 9.0%
    x264 [info]: 8x8 transform intra:56.8% inter:42.6%
    x264 [info]: coded y,uvDC,uvAC intra: 88.5% 85.7% 69.4% inter: 22.8% 22.4% 14.7%
    x264 [info]: i16 v,h,dc,p: 34% 15%  5% 46%
    x264 [info]: i8 v,h,dc,ddl,ddr,vr,hd,vl,hu: 14%  9%  5% 10% 14% 14% 12% 12% 11%
    x264 [info]: i4 v,h,dc,ddl,ddr,vr,hd,vl,hu: 13%  9%  3% 11% 16% 15% 13% 11%  9%
    x264 [info]: i8c dc,h,v,p: 47% 17% 22% 14%
    x264 [info]: ref P L0: 74.5% 15.1% 10.4%
    x264 [info]: ref B L0: 82.4% 17.6%
    x264 [info]: kb/s:3494.56

    Скриншоты

    -

    Релиз подготовлен для просмотра на Apple TV, iPad, iPhone, iPod Touch.
    Для просмотра данного релиза на компьютере с ОС Windows рекомендуется использовать VLC media player
    Скачать .torrent

    Скачать торрент-файл бесплатно и на максимальной скорости!

    Как скачивать? · Что такое торрент? · Рейтинг и ограничения

    !ВНИМАНИЕ!
    Сайт не распространяет и не хранит электронные версии произведений, а занимается лишь лишь предоставлением доступа к создаваемому пользователями каталогу ссылок на торрент-файлы, которые содержат только списки хеш-сумм, убедительная просьба с жалобами обращаться напрямую к пользователю. Файлы для обмена на трекере предоставлены пользователями сайта, и администрация не несёт ответственности за их содержание. Просьба не заливать файлы, защищенные авторскими правами, а также файлы нелегального содержания!


    _________________
    [Профиль] [ЛС]
    Показать сообщения:    
    Ответить на тему

    Текущее время: Сегодня, в 18:53

    Часовой пояс: GMT + 2



    Вы не можете начинать темы
    Вы не можете отвечать на сообщения
    Вы не можете редактировать свои сообщения
    Вы не можете удалять свои сообщения
    Вы не можете голосовать в опросах
    Вы не можете прикреплять файлы к сообщениям
    Вы не можете скачивать файлы