Register  ·  Log in
Forgot password?

  • Исходный код / Source Code (Дункан Джонс / Duncan Jones) [2011, США, Канада, фантастика, боевик, триллер, BDRip] Dub

    Reply to topic
    Author Message


    Post 10-Jun-2015 18:18



    Исходный код / Source Code
    Страна: США, Канада
    Жанр: фантастика, боевик, триллер
    Год выпуска: 2011
    Продолжительность: 01:33:13
    Перевод: Профессиональный (дублированный)
    Оригинальная аудиодорожка: Нет
    Cубтитры: Нет--Режиссер: Дункан Джонс / Duncan Jones--В ролях: Джейк Джилленхол, Мишель Монахэн, Вера Фармига, Джеффри Райт, Расселл Питерс, Джеймс А. Вудс, Майкл Арден, Кас Анвар, Джо Кобден, Брент Скэгфорд, Крэйг Томас, Гордон Мастен, Сьюзэн Бэйн, Паула Жан Хиксон, Линкольн Уорд, Кайл Гейтхаус, Альберт Кван, Энн Дэй-Джонс, Клариса Бирн, Мэтт Холлэнд, Фредерик Де Гранпре, Скотт Бакула, Лаура Этвуд, Райнальд Лапьер, Сэмюэл Медоуз...--Описание: Солдат по имени Коултер мистическим образом оказывается в теле неизвестного мужчины, погибшего в железнодорожной катастрофе. Коултер вынужден переживать чужую смерть снова и снова до тех пор, пока не поймет, кто — зачинщик катастрофы.--Доп. информация: Kinopoisk | IMDB | Sample--Качество видео: BDRip
    Формат видео: AVI
    Видео: XviD build 65, 720x400 (16:9), 1803 Kbps, 23.976 fps, 0.26 bit/pixel
    Аудио: AC3, 3/2 (L,C,R,l,r) + LFE ch, 48 kHz, 448 kbps


    Complete name : Исходный код.avi
    Format : AVI
    Format/Info : Audio Video Interleave
    File size : 1.47 GiB
    Duration : 1h 33mn
    Overall bit rate : 2 261 Kbps
    Movie name : Исходный код / Source Code (2011)
    Writing application : VirtualDubMod | || (build 2550/release)
    ID : 0
    Format : MPEG-4 Visual
    Format profile : Advanced Simple@L5
    Format settings, BVOP : 1
    Format settings, QPel : No
    Format settings, GMC : No warppoints
    Format settings, Matrix : Custom
    Codec ID : XVID
    Codec ID/Hint : XviD
    Duration : 1h 33mn
    Bit rate : 1 803 Kbps
    Width : 720 pixels
    Height : 400 pixels
    Display aspect ratio : 16:9
    Frame rate : 23.976 fps
    Color space : YUV
    Chroma subsampling : 4:2:0
    Bit depth : 8 bits
    Scan type : Progressive
    Compression mode : Lossy
    Bits/(Pixel*Frame) : 0.261
    Stream size : 1.17 GiB (80%)
    Writing library : XviD 65
    ID : 1
    Format : AC-3
    Format/Info : Audio Coding 3
    Mode extension : CM (complete main)
    Format settings, Endianness : Big
    Codec ID : 2000
    Duration : 1h 33mn
    Bit rate mode : Constant
    Bit rate : 448 Kbps
    Channel(s) : 6 channels
    Channel positions : Front: L C R, Side: L R, LFE
    Sampling rate : 48.0 KHz
    Bit depth : 16 bits
    Compression mode : Lossy
    Stream size : 299 MiB (20%)
    Alignment : Split accross interleaves
    Interleave, duration : 42 ms (1.00 video frame)
    Interleave, preload duratio : 500 ms


    Download .torrent

    Download free and at maximum speed!

    How to Download? · What is a torrent? · Ratings and Limitations

    The site does not extend and does not store electronic(digital) versions of products, and only gives access to a reference catalogue created by users on torrent-files which contain only lists of the hash-sums, the earnest entreaty, with complaints(abuse) to access directly to the user. Files for an exchange on tracker are given by users of a site, and the administration does not bear the responsibility for their maintenance. The request to not fill in the files protected by copyrights, and also files of the illegal maintenance!

    [Profile] [PM]
    Display posts from previous:    
    Reply to topic

    The time now is: Today 23:19

    All times are GMT + 3 Hours

    You cannot post new topics in this forum
    You cannot reply to topics in this forum
    You cannot edit your posts in this forum
    You cannot delete your posts in this forum
    You cannot vote in polls in this forum
    You cannot attach files in this forum
    You cannot download files in this forum