BitTorrentTracker PerecTracker.org
BitTorrentTracker PerecTracker.org
    
Регистрация  ·  Вход
 
 · 
Забыли пароль?

  • [ATV3] Красивая и Безумная / Beautiful & Twisted (Кристофер Залла / Christopher Zalla ) [2015, США, Триллер, драма, криминал, WEB-DL, HD (1080p)] MVO + Original

    Ответить на тему
     
    Автор Сообщение

    rechyn

    Создавать темы 10-Июн-2015 04:42

           

    [Цитировать]

    Красивая и Безумная / Beautiful & Twisted
    -
    4.429 / 10 6.30 / 10
    -Год выпуска: 2015
    Страна: США
    Жанр: Триллер, драма, криминал
    Продолжительность: 01:26:15
    Перевод: Многоголосый закадровый (iTunes)]
    Оригинальная аудиодорожка: Есть
    Режиссёр: Кристофер Залла
    Сценарий: Тина Бут, Julie Brown, Stephen Kay
    Продюсер: Дэмиен Ганчевски, Лина Вонг, Кайл А. Кларк
    Оператор: Ричард Вонг
    Композитор: Нэйтан Уайтхед
    Художник: Энтони Медина, Колин Де Руан, Джозеф А. Порро
    Монтаж: Йен Силверштейн, Зебора Тидвелл
    В ролях: Роб Лоу, Пас Вега, Кэндис Берген, Сейшелл Гэбриел, Джуд Чикколелла, Мишель Херд, Уолтер ФонтЛеРой, Сони Брингас, Zachary Rifkin, Austin Wakefield
    Мировая премьера: 31 января 2015
    Описание: В июле 2009 года Бен Новак, унаследовавший сеть отелей Fontainebleau, был жестоко убит в номере отеля в пригороде Нью-Йорка. Своими ужасающими садистскими деталями страшное убийство вызвало мгновенный интерес средств массовой информации. Говорили, что зверское убийство было спланировано женщиной, пытавшейся уничтожить своего мужа и завладеть его состоянием.-Качество исходника: WEB-DL 1080p (NNMClub)
    Качество: WEB-DL
    Тип: HD (1080p)
    Контейнер: M4V
    Видео: H.264, 1916x1076, 16:9, 5 253 Kbps, 23.976 fps
    Аудио 1: Русский/Многоголосый закадровый (iTunes), AAC / 2.0 / 156 Kbps / 48.0 KHz
    Аудио 2: Английский/Оригинальная дорожка , AAC / 2.0 / 157 Kbps / 48.0 KHz
    Аудио 3: Русский/Многоголосый закадровый (iTunes Russia), AC-3 / 5.1 / 384 Kbps / 48.0 KHz
    Аудио 4: Английский/Оригинальная дорожка , AC-3 / 5.1 / 384 Kbps / 48.0 KHz
    -

    iTunes Meta Tags

    Sort Name: Beautiful & Twisted
    XID: Apple:vendor_id:2015-848032
    contentID: 983473916
    Screenwriters: Тина Бут, Julie Brown, Stephen Kay
    Producers: Дэмиен Ганчевски, Лина Вонг, Кайл А. Кларк
    Director: Кристофер Залла
    Cast: Роб Лоу, Пас Вега, Кэндис Берген, Сейшелл Гэбриел, Джуд Чикколелла, Мишель Херд, Уолтер ФонтЛеРой, Сони Брингас, Zachary Rifkin, Austin Wakefield
    Studio: Sony Pictures Television
    Rating: 7
    Long Description: В июле 2009 года Бен Новак, унаследовавший сеть отелей Fontainebleau, был жестоко убит в номере отеля в пригороде Нью-Йорка. Своими ужасающими садистскими деталями страшное убийство вызвало мгновенный интерес средств массовой информации. Говорили, что зверское убийство было спланировано женщиной, пытавшейся уничтожить своего мужа и завладеть его состоянием.
    Description: В июле 2009 года Бен Новак, унаследовавший сеть отелей Fontainebleau, был жестоко убит в номере отеля в пригороде Нью-Йорка.
    Release Date: 2015-01-31T08:00:00Z
    Artist: Кристофер Залла
    Name: Beautiful & Twisted

    MediaInfo

    General
    Complete name                            : /Users/imac/HandBrake/Krasivaja.i.Bezumnaja.WEB-DL.1080p.m4v
    Format                                   : MPEG-4
    Codec ID                                 : M4V
    File size                                : 3.82 GiB
    Duration                                 : 1h 26mn
    Overall bit rate mode                    : Variable
    Overall bit rate                         : 6 340 Kbps
    Movie name                               : Beautiful & Twisted
    Performer                                : Кристофер Залла
    Recorded date                            : UTC 2015-01-31 08:00:00
    Encoded date                             : UTC 2015-06-09 23:55:51
    Tagged date                              : UTC 2015-06-10 00:04:49
    Cover                                    : Yes
    sonm                                     : Beautiful & Twisted
    desc                                     : В июле 2009 года Бен Новак, унаследовавший сеть отелей Fontainebleau, был жестоко убит в номере отеля в пригороде Нью-Йорка.
    ldes                                     : В июле 2009 года Бен Новак, унаследовавший сеть отелей Fontainebleau, был жестоко убит в номере отеля в пригороде Нью-Йорка. Своими ужасающими садистскими деталями страшное убийство вызвало мгновенный интерес средств массовой информации. Говорили, что зверское убийство было спланировано женщиной, пытавшейся уничтожить своего мужа и завладеть его состоянием.
    hdvd                                     : 2
    stik                                     : 9
    rtng                                     : 0
    cnID                                     : 983473916
    xid                                      : Apple:vendor_id:2015-848032
    iTunEXTC                                 : mpaa|NR|000|
    iTunMOVI                                 : <?xml version=\"1.0\" encoding=\"UTF-8\"?> / <!DOCTYPE plist PUBLIC \"-//Apple//DTD PLIST 1.0//EN\" \"http://anonym.to/?http://www.apple.com/DTDs/PropertyList-1.0.dtd\"> / <plist version=\"1.0\"> / <dict> /  <key>cast</key> /  <array> /   <dict> /    <key>name</key> /    <string>Роб Лоу</string> /   </dict> /   <dict> /    <key>name</key> /    <string>Пас Вега</string> /   </dict> /   <dict> /    <key>name</key> /    <string>Кэндис Берген</string> /   </dict> /   <dict> /    <key>name</key> /    <string>Сейшелл Гэбриел</string> /   </dict> /   <dict> /    <key>name</key> /    <string>Джуд Чикколелла</string> /   </dict> /   <dict> /    <key>name</key> /    <string>Мишель Херд</string> /   </dict> /   <dict> /    <key>name</key> /    <string>Уолтер ФонтЛеРой</string> /   </dict> /   <dict> /    <key>name</key> /    <string>Сони Брингас</string> /   </dict> /   <dict> /    <key>name</key> /    <string>Zachary Rifkin</string> /   </dict> /   <dict> /    <key>name</key> /    <string>Austin Wakefield</string> /   </dict> /  </array> /  <key>directors</key> /  <array> /   <dict> /    <key>name</key> /    <string>Кристофер Залла</string> /   </dict> /  </array> /  <key>producers</key> /  <array> /   <dict> /    <key>name</key> /    <string>Дэмиен Ганчевски</string> /   </dict> /   <dict> /    <key>name</key> /    <string>Лина Вонг</string> /   </dict> /   <dict> /    <key>name</key> /    <string>Кайл А. Кларк</string> /   </dict> /  </array> /  <key>screenwriters</key> /  <array> /   <dict> /    <key>name</key> /    <string>Тина Бут</string> /   </dict> /   <dict> /    <key>name</key> /    <string>Julie Brown</string> /   </dict> /   <dict> /    <key>name</key> /    <string>Stephen Kay</string> /   </dict> /  </array> /  <key>studio</key> /  <string>Sony Pictures Television</string> / </dict> / </plist>
    Video #1
    ID                                       : 1
    Format                                   : AVC
    Format/Info                              : Advanced Video Codec
    Format profile                           : High@L4.0
    Format settings, CABAC                   : Yes
    Format settings, ReFrames                : 4 frames
    Codec ID                                 : avc1
    Codec ID/Info                            : Advanced Video Coding
    Duration                                 : 1h 26mn
    Bit rate                                 : 5 253 Kbps
    Maximum bit rate                         : 13.1 Mbps
    Width                                    : 1 916 pixels
    Height                                   : 1 076 pixels
    Display aspect ratio                     : 16:9
    Frame rate mode                          : Constant
    Frame rate                               : 23.976 fps
    Color space                              : YUV
    Chroma subsampling                       : 4:2:0
    Bit depth                                : 8 bits
    Scan type                                : Progressive
    Bits/(Pixel*Frame)                       : 0.106
    Stream size                              : 3.16 GiB (83%)
    Title                                    : Krasivaja i bezumnaja.2015.WebDL_1080p
    Language                                 : English
    Encoded date                             : UTC 2015-06-09 23:55:51
    Tagged date                              : UTC 2015-06-09 23:56:35
    Color primaries                          : BT.709-5, BT.1361, IEC 61966-2-4, SMPTE RP177
    Transfer characteristics                 : BT.709-5, BT.1361
    Matrix coefficients                      : BT.709-5, BT.1361, IEC 61966-2-4 709, SMPTE RP177
    Video #2
    ID                                       : 7
    Format                                   : JPEG
    Codec ID                                 : jpeg
    Duration                                 : 1h 26mn
    Bit rate mode                            : Variable
    Bit rate                                 : 727 bps
    Width                                    : 640 pixels
    Height                                   : 359 pixels
    Display aspect ratio                     : 16:9
    Frame rate mode                          : Variable
    Frame rate                               : 0.003 fps
    Minimum frame rate                       : 0.002 fps
    Maximum frame rate                       : 0.008 fps
    Color space                              : YUV
    Chroma subsampling                       : 4:2:0
    Bit depth                                : 8 bits
    Compression mode                         : Lossy
    Bits/(Pixel*Frame)                       : 1.055
    Stream size                              : 474 KiB (0%)
    Language                                 : English
    Encoded date                             : UTC 2015-06-10 00:04:21
    Tagged date                              : UTC 2015-06-10 00:04:22
    Audio #1
    ID                                       : 2
    Format                                   : AAC
    Format/Info                              : Advanced Audio Codec
    Format profile                           : LC
    Codec ID                                 : 40
    Duration                                 : 1h 26mn
    Bit rate mode                            : Variable
    Bit rate                                 : 156 Kbps
    Maximum bit rate                         : 240 Kbps
    Channel(s)                               : 2 channels
    Channel positions                        : Front: L R
    Sampling rate                            : 48.0 KHz
    Compression mode                         : Lossy
    Stream size                              : 96.4 MiB (2%)
    Language                                 : Russian
    Encoded date                             : UTC 2015-06-10 00:04:09
    Tagged date                              : UTC 2015-06-10 00:04:15
    Audio #2
    ID                                       : 3
    Format                                   : AAC
    Format/Info                              : Advanced Audio Codec
    Format profile                           : LC
    Codec ID                                 : 40
    Duration                                 : 1h 26mn
    Bit rate mode                            : Variable
    Bit rate                                 : 157 Kbps
    Maximum bit rate                         : 242 Kbps
    Channel(s)                               : 2 channels
    Channel positions                        : Front: L R
    Sampling rate                            : 48.0 KHz
    Compression mode                         : Lossy
    Stream size                              : 96.5 MiB (2%)
    Language                                 : English
    Encoded date                             : UTC 2015-06-10 00:04:09
    Tagged date                              : UTC 2015-06-10 00:04:15
    Audio #3
    ID                                       : 4
    Format                                   : AC-3
    Format/Info                              : Audio Coding 3
    Mode extension                           : CM (complete main)
    Format settings, Endianness              : Big
    Codec ID                                 : ac-3
    Duration                                 : 1h 26mn
    Bit rate mode                            : Constant
    Bit rate                                 : 384 Kbps
    Channel(s)                               : 6 channels
    Channel positions                        : Front: L C R, Side: L R, LFE
    Sampling rate                            : 48.0 KHz
    Bit depth                                : 16 bits
    Compression mode                         : Lossy
    Stream size                              : 237 MiB (6%)
    Language                                 : Russian
    Encoded date                             : UTC 2015-06-10 00:04:09
    Tagged date                              : UTC 2015-06-10 00:04:15
    Audio #4
    ID                                       : 5
    Format                                   : AC-3
    Format/Info                              : Audio Coding 3
    Mode extension                           : CM (complete main)
    Format settings, Endianness              : Big
    Codec ID                                 : ac-3
    Duration                                 : 1h 26mn
    Bit rate mode                            : Constant
    Bit rate                                 : 384 Kbps
    Channel(s)                               : 6 channels
    Channel positions                        : Front: L C R, Side: L R, LFE
    Sampling rate                            : 48.0 KHz
    Bit depth                                : 16 bits
    Compression mode                         : Lossy
    Stream size                              : 237 MiB (6%)
    Language                                 : English
    Encoded date                             : UTC 2015-06-10 00:04:09
    Tagged date                              : UTC 2015-06-10 00:04:15
    Text
    ID                                       : 6
    Format                                   : Apple text
    Codec ID                                 : text
    Duration                                 : 1h 26mn
    Bit rate mode                            : Variable
    Bit rate                                 : 0 bps
    Stream size                              : 247 Bytes (0%)
    Language                                 : English
    Encoded date                             : UTC 2015-06-10 00:04:15
    Tagged date                              : UTC 2015-06-10 00:04:15
    Menu
    00:00:00.000                             : 1
    00:04:10.083                             : 2
    00:09:49.089                             : 3
    00:14:50.098                             : 4
    00:22:13.083                             : 5
    00:26:40.100                             : 6
    00:32:01.129                             : 7
    00:37:58.153                             : 8
    00:41:30.156                             : 9
    00:43:34.155                             : 10
    00:47:28.139                             : 11
    00:49:56.121                             : 12
    00:57:41.086                             : 13
    01:03:42.155                             : 14
    01:10:23.139                             : 15
    01:16:57.158                             : 16

    Скриншоты

    -

    Релиз подготовлен для просмотра на Apple TV, iPad, iPhone, iPod Touch.
    Для просмотра данного релиза на компьютере с ОС Windows рекомендуется использовать VLC media player
    Скачать .torrent

    Скачать торрент-файл бесплатно и на максимальной скорости!

    Как скачивать? · Что такое торрент? · Рейтинг и ограничения

    !ВНИМАНИЕ!
    Сайт не распространяет и не хранит электронные версии произведений, а занимается лишь лишь предоставлением доступа к создаваемому пользователями каталогу ссылок на торрент-файлы, которые содержат только списки хеш-сумм, убедительная просьба с жалобами обращаться напрямую к пользователю. Файлы для обмена на трекере предоставлены пользователями сайта, и администрация не несёт ответственности за их содержание. Просьба не заливать файлы, защищенные авторскими правами, а также файлы нелегального содержания!


    _________________
    [Профиль] [ЛС]
    Показать сообщения:    
    Ответить на тему

    Текущее время: Сегодня, в 11:53

    Часовой пояс: GMT + 2



    Вы не можете начинать темы
    Вы не можете отвечать на сообщения
    Вы не можете редактировать свои сообщения
    Вы не можете удалять свои сообщения
    Вы не можете голосовать в опросах
    Вы не можете прикреплять файлы к сообщениям
    Вы не можете скачивать файлы