BitTorrentTracker PerecTracker.org
BitTorrentTracker PerecTracker.org
    
Регистрация  ·  Вход
 
 · 
Забыли пароль?

  • Царь сновидений / Joseph: King of Dreams (Роб ЛаДука, Роберт С. Рамирез / Rob LaDuca, Robert C. Ramirez) [2000, мультфильм, мюзикл, драма, приключения, семейный, биография, история, WEB-DLRip] DUB + MVO + AVO

    Ответить на тему
     
    Автор Сообщение

    rechyn

    Создавать темы 10-Июн-2015 00:30

           

    [Цитировать]

    Царь сновидений
    Joseph: King of Dreams
    Страна: США
    Жанр: мультфильм, мюзикл, драма, приключения, семейный, биография, история
    Продолжительность: 01:14:41
    Год выпуска: 2000-Перевод: Профессиональный (Дублированный) По заказу "Первого канала"
    Перевод: Профессиональный (Двухголосый закадровый) DVD R5
    Перевод: Авторский (Одноголосый закадровый) Юрий Живов
    Русские субтитры: нет
    Режиссёр: Роб ЛаДука, Роберт С. Рамирез / Rob LaDuca, Robert C. Ramirez-Роли озвучивали: Бен Аффлек, Марк Хэмилл, Ричард Херд, Морин МакГоверн, Джоди Бенсон, Джудит Лайт, Джеймс Экхаус, Ричард МакГонагл, Дэвид Кэмпбелл, Стивен Уэбер-Описание: Cоздатели полнометражного мультфильма-блокбастера "Принц Египта", получившего премию Американской Киноакадемии "Оскар", представляют Вам новую, замечательную, анимационную картину для всей семьи. Компания Стивена Спилберга "DreamWorks" неизменно радует нас восхитительными мультфильмами: "Муравей Антц", "Дорога на Эльдорадо" и лауреат "Оскара", непревзойденный "Шрек". И, надо заметить, что это чудесная картина - не исключение! Как всегда Вас ждет прекрасная музыка, великолепная анимация и потрясающая история! Рассказ пойдет о чудо-юноше, который наделен удивительным даром видеть будущее и объяснять сны...-Релиз:
    | | -• Большое спасибо Lexa1988-L1 за Дубляж и Isolated track;
    • Большое спасибо sergey_n за голос Юрия Живова;
    • Работа со звуком xfiles
    • Работа с WEB-DL и звуком -Azureus--Качество: WEB-DLRip
    Формат: AVI
    Видео: 688x384 (1.79:1), 23,976 fps, XviD 66 ~1 261 kbps avg, 0.20 bit/pixel
    Аудио: 48.0 kHz, MPEG Layer 3, 1/0 (C) ch, ~128 kbps |По заказу "Первого канала"|
    Аудио: 48.0 kHz, MPEG Layer 3, 2/0 (L,R) ch, ~128 kbps |DVD R5| отдельно
    Аудио: 48.0 kHz, MPEG Layer 3, 2/0 (L,R) ch, ~128 kbps |Юрий Живов| отдельно
    Субтитры: отсутствуют

    MI


    General
    Complete name : D:\incarcare\rip gata\Joseph King of Dreams.2000.WEB-DLRip.746[dragomire]_perectracker.org\Joseph King of Dreams.2000.WEB-DLRip.[dragomire]_perectracker.org.avi
    Format : AVI
    Format/Info : Audio Video Interleave
    File size : 747 MiB
    Duration : 1h 14mn
    Overall bit rate : 1 398 Kbps
    Writing application : VirtualDubMod 1.5.10.2 (build 2540/release)
    Writing library : VirtualDubMod build 2540/release
    Video
    ID : 0
    Format : MPEG-4 Visual
    Format profile : Advanced Simple@L5
    Format settings, BVOP : 1
    Format settings, QPel : No
    Format settings, GMC : No warppoints
    Format settings, Matrix : Custom
    Codec ID : XVID
    Codec ID/Hint : XviD
    Duration : 1h 14mn
    Bit rate : 1 261 Kbps
    Width : 688 pixels
    Height : 384 pixels
    Display aspect ratio : 16:9
    Frame rate : 23.976 fps
    Color space : YUV
    Chroma subsampling : 4:2:0
    Bit depth : 8 bits
    Scan type : Progressive
    Compression mode : Lossy
    Bits/(Pixel*Frame) : 0.199
    Stream size : 673 MiB (90%)
    Writing library : XviD 66
    Audio
    ID : 1
    Format : MPEG Audio
    Format version : Version 1
    Format profile : Layer 3
    Codec ID : 55
    Codec ID/Hint : MP3
    Duration : 1h 14mn
    Bit rate mode : Constant
    Bit rate : 128 Kbps
    Channel(s) : 1 channel
    Sampling rate : 48.0 KHz
    Compression mode : Lossy
    Stream size : 68.4 MiB (9%)
    Alignment : Aligned on interleaves
    Interleave, duration : 42 ms (1.00 video frame)
    Interleave, preload duratio : 504 ms

    Скриншоты

    Скачать .torrent

    Скачать торрент-файл бесплатно и на максимальной скорости!

    Как скачивать? · Что такое торрент? · Рейтинг и ограничения

    !ВНИМАНИЕ!
    Сайт не распространяет и не хранит электронные версии произведений, а занимается лишь лишь предоставлением доступа к создаваемому пользователями каталогу ссылок на торрент-файлы, которые содержат только списки хеш-сумм, убедительная просьба с жалобами обращаться напрямую к пользователю. Файлы для обмена на трекере предоставлены пользователями сайта, и администрация не несёт ответственности за их содержание. Просьба не заливать файлы, защищенные авторскими правами, а также файлы нелегального содержания!


    _________________
    [Профиль] [ЛС]
    Показать сообщения:    
    Ответить на тему

    Текущее время: Сегодня, в 08:13

    Часовой пояс: GMT + 2



    Вы не можете начинать темы
    Вы не можете отвечать на сообщения
    Вы не можете редактировать свои сообщения
    Вы не можете удалять свои сообщения
    Вы не можете голосовать в опросах
    Вы не можете прикреплять файлы к сообщениям
    Вы не можете скачивать файлы