BitTorrentTracker PerecTracker.org
BitTorrentTracker PerecTracker.org
    
Регистрация  ·  Вход
 
 · 
Забыли пароль?

  • Проделки в старинном духе (Александр Панкратов) [1986, комедия, DVDRip-AVC]

    Ответить на тему
     
    Автор Сообщение

    Light

    Создавать темы 09-Июн-2015 16:06

           

    [Цитировать]

    Проделки в старинном духе-Жанр: комедия
    Год выпуска: 1986
    Продолжительность: 01:09:54-Режиссёр: Александр Панкратов-В ролях:
    Дарья Михайлова, Владимир Самойлов, Николай Трофимов, Михаил Кононов, Алексей Нестеренко, Борис Бачурин, Владимир Виноградов, Валентин Голубенко, Жанна Токарская, Надежда Тимохина
    Описание:
    По мотивам ранних рассказов А. Н. Толстого. Отставной гусар Николай Денисович Кобелев, промотавший свое состояние, хочет женить своего сына на дочери соседа Катеньке. Желая убедиться в искренности чувств жениха, Катенька устраивает своему суженому одно испытание за другим.-Исходник | Сэмпл | Кинопоиск-Качество видео: DVDRip-AVC, благодарю intellect за исходник.
    Формат видео: MKV
    Видео: x264 (High@L4.1); 716@1018x430, Display aspect ratio 2.367:1, 25.000 fps, 2494 Kbps
    Аудио: Оригинал: AC-3; 16 bit 48 Khz; 2.0ch 192 Kbps; CBRMediaInfo

    -

    x264 log

    avs [info]: 716x430p 64:45 @ 25/1 fps (cfr)
    x264 [info]: using SAR=64/45
    x264 [info]: using cpu capabilities: MMX2 SSE2Fast SSSE3 SSE4.2
    x264 [info]: profile High, level 4.1
    x264 [info]: frame I:666 Avg QP:15.38 size: 72617
    x264 [info]: frame P:25600 Avg QP:18.41 size: 27804
    x264 [info]: frame B:78590 Avg QP:23.44 size: 6964
    x264 [info]: consecutive B-frames: 2.5% 3.8% 12.2% 32.5% 17.6% 23.7% 4.7% 2.0% 0.7% 0.4%
    x264 [info]: mb I I16..4: 10.6% 60.9% 28.5%
    x264 [info]: mb P I16..4: 2.0% 9.9% 2.6% P16..4: 35.8% 24.4% 19.3% 1.7% 0.5% skip: 3.8%
    x264 [info]: mb B I16..4: 0.1% 1.3% 0.5% B16..8: 37.0% 11.1% 3.6% direct: 9.6% skip:36.8% L0:32.7% L1:37.5% BI:29.8%
    x264 [info]: 8x8 transform intra:66.7% inter:65.7%
    x264 [info]: coded y,uvDC,uvAC intra: 84.7% 85.1% 57.0% inter: 37.2% 27.9% 6.0%
    x264 [info]: i16 v,h,dc,p: 75% 6% 8% 11%
    x264 [info]: i8 v,h,dc,ddl,ddr,vr,hd,vl,hu: 19% 9% 8% 7% 11% 13% 10% 12% 11%
    x264 [info]: i4 v,h,dc,ddl,ddr,vr,hd,vl,hu: 15% 11% 7% 7% 12% 13% 11% 11% 12%
    x264 [info]: i8c dc,h,v,p: 35% 20% 27% 19%
    x264 [info]: Weighted P-Frames: Y:30.2% UV:18.9%
    x264 [info]: ref P L0: 44.5% 19.2% 14.9% 5.9% 4.0% 3.0% 2.6% 1.7% 1.7% 1.6% 0.7% 0.1%
    x264 [info]: ref B L0: 85.2% 8.2% 2.4% 1.4% 0.9% 0.8% 0.6% 0.3% 0.2%
    x264 [info]: ref B L1: 95.8% 4.2%
    x264 [info]: kb/s:2493.74
    x264 [total]: encoded 104856 frames, 24.10 fps, 2493.74 kb/s
    -General
    Unique ID : 240431635511088359666434807999071738055 (0xB4E172DA20F459B98734B39426B358C7)
    Complete name : Проделки в старинном духе.1986.mkv
    Format : Matroska
    Format version : Version 2
    File size : 1.31 GiB
    Duration : 1h 9mn
    Overall bit rate : 2 688 Kbps
    Movie name : «Проделки в старинном духе»
    Encoded date : UTC 2015-06-08 13:21:48
    Writing application : mkvmerge v5.8.0 ('No Sleep / Pillow') built on Sep 2 2012 15:37:04
    Writing library : libebml v1.2.3 + libmatroska v1.3.0
    Comment : DVDRip-AVC
    Originally released : June 8th 2015
    Encoded by : george$t®
    Video
    ID : 1
    Format : AVC
    Format/Info : Advanced Video Codec
    Format profile : High@L4.1
    Format settings, CABAC : Yes
    Format settings, ReFrames : 10 frames
    Codec ID : V_MPEG4/ISO/AVC
    Duration : 1h 9mn
    Bit rate : 2 442 Kbps
    Width : 716 pixels
    Height : 430 pixels
    Display aspect ratio : 2.35:1
    Original display aspect rat : 2.35:1
    Frame rate mode : Constant
    Frame rate : 25.000 fps
    Color space : YUV
    Chroma subsampling : 4:2:0
    Bit depth : 8 bits
    Scan type : Progressive
    Bits/(Pixel*Frame) : 0.317
    Stream size : 1.19 GiB (91%)
    Title : Проделки в старинном духе.1986
    Writing library : x264 core 146 r2538kMod 121396c
    Encoding settings : cabac=1 / ref=10 / deblock=1:-1:-1 / analyse=0x3:0x133 / me=umh / subme=10 / psy=1 / fade_compensate=0.00 / psy_rd=0.95:0.10 / mixed_ref=1 / me_range=24 / chroma_me=1 / trellis=2 / 8x8dct=1 / cqm=0 / deadzone=21,11 / fast_pskip=1 / chroma_qp_offset=-3 / threads=12 / lookahead_threads=2 / sliced_threads=0 / nr=0 / decimate=1 / interlaced=0 / bluray_compat=0 / constrained_intra=0 / fgo=0 / bframes=9 / b_pyramid=2 / b_adapt=2 / b_bias=0 / direct=1 / weightb=1 / open_gop=0 / weightp=2 / keyint=250 / keyint_min=25 / scenecut=40 / intra_refresh=0 / rc_lookahead=75 / rc=crf / mbtree=1 / crf=17.0000 / qcomp=0.65 / qpmin=0 / qpmax=32 / qpstep=4 / vbv_maxrate=50000 / vbv_bufsize=62500 / crf_max=0.0 / nal_hrd=none / filler=0 / ip_ratio=1.30 / aq=1:1.00
    Language : Russian
    Default : Yes
    Forced : No
    Color primaries : BT.601 PAL
    Transfer characteristics : BT.470 System B, BT.470 System G
    Matrix coefficients : BT.601
    Color range : Limited
    Audio
    ID : 2
    Format : AC-3
    Format/Info : Audio Coding 3
    Mode extension : CM (complete main)
    Format settings, Endianness : Big
    Codec ID : A_AC3
    Duration : 1h 9mn
    Bit rate mode : Constant
    Bit rate : 192 Kbps
    Channel(s) : 2 channels
    Channel positions : Front: L R
    Sampling rate : 48.0 KHz
    Bit depth : 16 bits
    Compression mode : Lossy
    Stream size : 96.0 MiB (7%)
    Title : Оригинал: AC-3; 16 bit 48 Khz; 2.0ch 192 Kbps; CBR
    Language : Russian
    Default : Yes
    Forced : No
    Menu
    00:00:00.000 : ru:Титры. Дорожное происшествие
    00:08:05.680 : ru:"Племянник"
    00:12:33.480 : ru:Катенька
    00:18:36.960 : ru:Богатый жених
    00:25:04.000 : ru:Молодой барин
    00:32:44.160 : ru:В гостях у штабс-капитана
    00:41:52.480 : ru:Похищение невесты
    00:47:22.760 : ru:Разбойники
    00:55:46.640 : ru:Отъезд
    01:00:59.960 : ru:"Экий ты, брат, аллегория!"
    01:04:11.120 : ru:Вдвоем
    01:07:00.040 : ru:Финал

    Скриншоты

    Скачать .torrent

    Скачать торрент-файл бесплатно и на максимальной скорости!

    Как скачивать? · Что такое торрент? · Рейтинг и ограничения

    !ВНИМАНИЕ!
    Сайт не распространяет и не хранит электронные версии произведений, а занимается лишь лишь предоставлением доступа к создаваемому пользователями каталогу ссылок на торрент-файлы, которые содержат только списки хеш-сумм, убедительная просьба с жалобами обращаться напрямую к пользователю. Файлы для обмена на трекере предоставлены пользователями сайта, и администрация не несёт ответственности за их содержание. Просьба не заливать файлы, защищенные авторскими правами, а также файлы нелегального содержания!


    _________________
    [Профиль] [ЛС]
    Показать сообщения:    
    Ответить на тему

    Текущее время: Сегодня, в 00:03

    Часовой пояс: GMT + 2



    Вы не можете начинать темы
    Вы не можете отвечать на сообщения
    Вы не можете редактировать свои сообщения
    Вы не можете удалять свои сообщения
    Вы не можете голосовать в опросах
    Вы не можете прикреплять файлы к сообщениям
    Вы не можете скачивать файлы