BitTorrentTracker PerecTracker.org
BitTorrentTracker PerecTracker.org
    
Регистрация  ·  Вход
 
 · 
Забыли пароль?

  • Робот по имени Чаппи / Chappie (Нил Бломкамп / Neill Blomkamp) [2015, США, Фантастика, боевик, триллер, BDRip] Dub + Sub

    Ответить на тему
     
    Автор Сообщение

    rechyn

    Создавать темы 09-Июн-2015 03:30

           

    [Цитировать]

    Робот по имени Чаппи / Chappie-Год выпуска: 2015
    Выпущено: США, Мексика, ЮАР / Columbia Pictures
    Жанр: фантастика, боевик, триллер
    Продолжительность: 02:00:19
    Перевод: Профессиональный (полное дублирование) BD CEE
    Cубтитры: Русские (форсированные) (внешние .srt*)-Режиссер:
    Нил Бломкамп / Neill Blomkamp-В ролях:
    Шарлто Копли (Chappie), Дев Патель (Deon Wilson), Ниндзя (Ninja), Йоланди Фиссер (Yolandi), Хосе Пабло Кантильо (Yankie (Amerika)), Хью Джекман (Vincent Moore), Сигурни Уивер (Michelle Bradley), Брэндон Оре (Hippo), Джонни Селема (Pitbull), Андерсон Купер (играет самого себя)-Описание:
    Чаппи — вундеркинд. Как и любой другой ребенок, он попадает под влияние своего окружения, и только его сердце и душа помогут ему найти свой путь. Но есть одна вещь, которая делает Чаппи непохожим на всех остальных: он — первый робот, способный чувствовать и думать.-Релиз групп
    | | IMDB | КиноПоиск | Сэмпл |-Качество: BDRip [BDRemux | 1080p | HDCLUB]
    Формат: AVI
    Видео: 720x304 (2.37:1), 23.976 fps, XviD build 73 ~1343 kbps avg, 0.26 bit/pixel
    Аудио: 48 kHz, AC3 Dolby Digital, 3/2 (L,C,R,l,r) + LFE ch, ~384.00 kbps avg-

    Скриншоты

    MediaInfo

    General
    Complete name                            : D:\Robot_po_imeni_Chappi_2015_BDRip_by_Dalemake.avi
    Format                                   : AVI
    Format/Info                              : Audio Video Interleave
    File size                                : 1.46 GiB
    Duration                                 : 2h 0mn
    Overall bit rate                         : 1 737 Kbps
    Writing application                      : VirtualDubMod 1.5.10.3 | www.virtualdub-fr.org || (build 2550/release)
    Writing library                          : VirtualDubMod build 2550/release
    Video
    ID                                       : 0
    Format                                   : MPEG-4 Visual
    Format profile                           : Advanced Simple@L5
    Format settings, BVOP                    : 1
    Format settings, QPel                    : No
    Format settings, GMC                     : No warppoints
    Format settings, Matrix                  : Custom
    Codec ID                                 : XVID
    Codec ID/Hint                            : XviD
    Duration                                 : 2h 0mn
    Bit rate                                 : 1 344 Kbps
    Width                                    : 720 pixels
    Height                                   : 304 pixels
    Display aspect ratio                     : 2.35:1
    Frame rate                               : 23.976 fps
    Color space                              : YUV
    Chroma subsampling                       : 4:2:0
    Bit depth                                : 8 bits
    Scan type                                : Progressive
    Compression mode                         : Lossy
    Bits/(Pixel*Frame)                       : 0.256
    Stream size                              : 1.13 GiB (77%)
    Writing library                          : XviD 73
    Audio
    ID                                       : 1
    Format                                   : AC-3
    Format/Info                              : Audio Coding 3
    Mode extension                           : CM (complete main)
    Format settings, Endianness              : Big
    Codec ID                                 : 2000
    Duration                                 : 2h 0mn
    Bit rate mode                            : Constant
    Bit rate                                 : 384 Kbps
    Channel(s)                               : 6 channels
    Channel positions                        : Front: L C R, Side: L R, LFE
    Sampling rate                            : 48.0 KHz
    Bit depth                                : 16 bits
    Compression mode                         : Lossy
    Stream size                              : 330 MiB (22%)
    Alignment                                : Split accross interleaves
    Interleave, duration                     : 42 ms (1.00 video frame)
    Interleave, preload duration             : 500 ms

    Сравнение

    http://perectracker.org/viewtopic.php?t=5018203 - оригинал и субтитры в бюджетном рипе считаю ни к чему, они есть в рипе 2.18...
    http://screenshotcomparison.com/comparison/130559
    + сомнительный звук, для 384 кб/с спектр кратен 18 Гц, но никак не 20 Гц...Хотолось бы узнать происхождение дорожки...
    -
    Скачать .torrent

    Скачать торрент-файл бесплатно и на максимальной скорости!

    Как скачивать? · Что такое торрент? · Рейтинг и ограничения

    !ВНИМАНИЕ!
    Сайт не распространяет и не хранит электронные версии произведений, а занимается лишь лишь предоставлением доступа к создаваемому пользователями каталогу ссылок на торрент-файлы, которые содержат только списки хеш-сумм, убедительная просьба с жалобами обращаться напрямую к пользователю. Файлы для обмена на трекере предоставлены пользователями сайта, и администрация не несёт ответственности за их содержание. Просьба не заливать файлы, защищенные авторскими правами, а также файлы нелегального содержания!


    _________________
    [Профиль] [ЛС]
    Показать сообщения:    
    Ответить на тему

    Текущее время: Сегодня, в 14:27

    Часовой пояс: GMT + 2



    Вы не можете начинать темы
    Вы не можете отвечать на сообщения
    Вы не можете редактировать свои сообщения
    Вы не можете удалять свои сообщения
    Вы не можете голосовать в опросах
    Вы не можете прикреплять файлы к сообщениям
    Вы не можете скачивать файлы