BitTorrentTracker PerecTracker.org
BitTorrentTracker PerecTracker.org
    
Регистрация  ·  Вход
 
 · 
Забыли пароль?

  • Джимми Нейтрон: Мальчик-гений / Jimmy Neutron: Boy Genius (Джон А. Дэвис / John A. Davis) [2001, мультфильм, фантастика, боевик, WEB-DLRip] DUB (СТС) + 2 x DVO (Премьер, DVD R7) + VO (Гланц) + AVO (Гранкин) + Ukr MVO (Інтер) + Original Eng + eng sub

    Ответить на тему
     
    Автор Сообщение

    rechyn

    Создавать темы 08-Июн-2015 14:54

           

    [Цитировать]

    Джимми Нейтрон: Мальчик-гений / Jimmy Neutron: Boy Genius«Blasting Into Theatres»-Страна: США
    Жанр: мультфильм, фантастика, боевик, комедия, приключения, семейный
    Год выпуска: 2001
    Продолжительность: 01:22:34
    Перевод: Профессиональный (полное дублирование)
    Русские субтитры: Нет-Режиссер: Джон А. Дэвис / John A. Davis-Роли дублировали: Жанна Никонова (Judy Neutron), Олег Вирозуб (Sheen Estevez; Nick Dean), Елена Борзунова (Libby), Алексей Борзунов (General)-Описание: Пришельцы решили совершить массированный налет на мирный и благополучный Ретровилль! В то время, как Джимми развлекался в луна-парке со своими друзьями, инопланетяне обрушились с небес, похитив при этом родителей всех детишек!
    Жизнь без строгих пап и мам, поначалу казавшаяся раем, стала совершенно невыносимой и тоскливой. Отважный Джимми Нейтрон решает спасти любимых родителей из инопланетного плена! Вместе со своей верной собакой-киборгом мальчик-гений создает эскадру космических кораблей, на которой он, вместе с осиротевшими ребятишками Ретровилля, отправится в межгалактический поход освобождать родителей!-Рейтинг:

    MPAA: - Нет возрастных ограничений-Бюджет: $30 000 000
    Маркетинг: $25 000 000
    Сборы в США: $80 936 232
    Сборы в мире: $102 992 536
    Мировая премьера: 9 декабря 2001-Доп. информация:
    - За оцифровку с VHS Hi-Fi звуковой дорожки с переводом "Премьер Мультимедиа" спасибо bora86bora.
    - Запись дубляжа с канала "СТС", работа со звуком и видео - xfiles.-Релиз: -Качество: WEB-DLRip
    Формат: AVI
    Видео: 704x400 (1.76:1), 23.976 fps, XviD build 65 ~2289 kbps avg, 0.34 bit/pixel
    Аудио: 48.0 KHz, AC3, 2 ch, 224 kbps - Дубляж | СТС
    Аудио 2: 48.0 KHz, AC3, 2 ch, 224 kbps - Закадровый | Премьер Мультимедиа | VHS Hi-Fi
    Аудио 3: 48.0 KHz, AC3, 6 ch, 384 kbps - Закадровый | DVD R7
    Аудио 4: 48.0 KHz, AC3, 6 ch, 448 kbps - Закадровый | Пётр Гланц
    Аудио 5: 48.0 KHz, AC3, 6 ch, 448 kbps - Закадровый | Евгений Гранкин
    Аудио 6: 48.0 KHz, AC3, 1 ch, 128 kbps - Закадровий | Інтер (Українська)
    Аудио 7: 48.0 KHz, AC3, 6 ch, 448 kbps - Original
    Субтитры: Английские-

    MI

    General
    Complete name : C:\Users\Ya\Desktop\Jimmy.Neutron.Boy.Genius.2001.720p.WEB-DL-rutracker.xfiles.avi
    Format : AVI
    Format/Info : Audio Video Interleave
    File size : 1.46 GiB
    Duration : 1h 22mn
    Overall bit rate : 2 523 Kbps
    Writing application : VirtualDubMod 1.5.10.3 | www.virtualdub-fr.org || (build 2550/release)
    Writing library : VirtualDubMod build 2550/release
    Video
    ID : 0
    Format : MPEG-4 Visual
    Format profile : Advanced Simple@L5
    Format settings, BVOP : 2
    Format settings, QPel : No
    Format settings, GMC : No warppoints
    Format settings, Matrix : Custom
    Codec ID : XVID
    Codec ID/Hint : XviD
    Duration : 1h 22mn
    Bit rate : 2 289 Kbps
    Width : 704 pixels
    Height : 400 pixels
    Display aspect ratio : 16:9
    Frame rate : 23.976 fps
    Color space : YUV
    Chroma subsampling : 4:2:0
    Bit depth : 8 bits
    Scan type : Progressive
    Compression mode : Lossy
    Bits/(Pixel*Frame) : 0.339
    Stream size : 1.32 GiB (91%)
    Writing library : XviD 65
    Audio
    ID : 1
    Format : AC-3
    Format/Info : Audio Coding 3
    Mode extension : CM (complete main)
    Codec ID : 2000
    Duration : 1h 22mn
    Bit rate mode : Constant
    Bit rate : 224 Kbps
    Channel(s) : 2 channels
    Channel positions : Front: L R
    Sampling rate : 48.0 KHz
    Bit depth : 16 bits
    Compression mode : Lossy
    Stream size : 132 MiB (9%)
    Alignment : Split accross interleaves
    Interleave, duration : 42 ms (1.00 video frame)
    Interleave, preload duration : 500 ms
    Все раздачи мультфильма!
    Скачать .torrent

    Скачать торрент-файл бесплатно и на максимальной скорости!

    Как скачивать? · Что такое торрент? · Рейтинг и ограничения

    !ВНИМАНИЕ!
    Сайт не распространяет и не хранит электронные версии произведений, а занимается лишь лишь предоставлением доступа к создаваемому пользователями каталогу ссылок на торрент-файлы, которые содержат только списки хеш-сумм, убедительная просьба с жалобами обращаться напрямую к пользователю. Файлы для обмена на трекере предоставлены пользователями сайта, и администрация не несёт ответственности за их содержание. Просьба не заливать файлы, защищенные авторскими правами, а также файлы нелегального содержания!


    _________________
    [Профиль] [ЛС]
    Показать сообщения:    
    Ответить на тему

    Текущее время: Сегодня, в 05:19

    Часовой пояс: GMT + 2



    Вы не можете начинать темы
    Вы не можете отвечать на сообщения
    Вы не можете редактировать свои сообщения
    Вы не можете удалять свои сообщения
    Вы не можете голосовать в опросах
    Вы не можете прикреплять файлы к сообщениям
    Вы не можете скачивать файлы