BitTorrentTracker PerecTracker.org
BitTorrentTracker PerecTracker.org
    
Регистрация  ·  Вход
 
 · 
Забыли пароль?

  • Боюсь забыть / J\'ai peur d\'oublier (Элизабет Раппно / Elisabeth Rappeneau) [2011, Франция, Швейцария, роуд-муви, драма, экранизация, DVB] Original (Fre) + Sub (Rus)

    Ответить на тему
     
    Автор Сообщение

    Light

    Создавать темы 08-Июн-2015 14:54

           

    [Цитировать]

    Боюсь забыть
    J'ai peur d'oublier-Страна: Франция, Швейцария
    Жанр: роуд-муви, драма, экранизация
    Год выпуска: 2011
    Продолжительность: 01:28:00Перевод: Субтитры (русский перевод И.Рыбкиной, Éclair Group)
    Cубтитры: русские, английские, французские
    Оригинальная аудиодорожка: французский
    Режиссер: Элизабет Раппно / Élisabeth Rappeneau
    В ролях: Клементин Селари / Clémentine Célarié (Fabienne), Даниель Руссо / Daniel Russo (Paul), Патрик Каталифо / Patrick Catalifo (Patrick), Женевьев Фонтанель / Geneviève Fontanel (La mère de Fabienne), Жюльет Лемоннье / Juliet Lemonnier (Harmonie), Эмелин Саннье / Emeline Sannier (Harmonie enfant), Юго Брюнсвик / Hugo Brunswick (Bruno)
    Описание: По одноименному роману Фабьен Пьель / Fabienne Piel (2009).
    Фабьен, 45-летняя женщина, мать двоих детей, имеющая свой бизнес, обнаруживает, что страдает синдромом Альцгеймера. Однажды утром, выйдя из дома за покупками, она забыла, зачем и куда пошла, и где ее дом… и со случайным попутчиком отправляется в автомобильное путешествие…
    Доп. информация: Hot Bird (13.0°E) TV5MONDE Europe DVB-S
    Награды: приз Festival de la fiction TV de la Rochelle 2011 лучшей актрисе (Clémentine Célarié) + номинация на лучший телефильм; 4 номинации на премию "Золотая нимфа" Monte-Carlo TV Festival 2012 (лучший телефильм, режиссер, актер - Daniel Russo, актриса - Clémentine Célarié).

    Качество видео: DVB
    Формат видео: DVD Video
    Видео: MPEG Video 2, 720x576@1024x576 (16:9), 25 fps, ~3195 kbps avg, 0.308 bit/pixel
    Аудио: MPEG Audio 2, 2 ch, 48 kHz, ~192.00 kbps avg - французский
    Формат субтитров: prerendered (IDX+SUB)

    DVDInfo, MediaInfo

    Title: [apreder]J'ai_peur_d'oublier(2011)DVBSize: 2.12 Gb ( 2 227 234,00 KBytes ) - DVD-5Enabled regions: 1, 2, 3, 4, 5, 6, 7, 8
    VTS_01 : Play Length: 01:28:00 Video: PAL 16:9 (720x576) VBR, Auto Letterboxed Audio: Francais (MPEG1, 2 ch) Subtitles: Russian English Francais
    ОбщееПолное имя : F:\My Torrents 3\[apreder]J'ai_peur_d'oublier(2011)DVB\VIDEO_TS\VTS_01_2.VOBФормат : MPEG-PSРазмер файла : 1024 МбайтПродолжительность : 41 м.Режим общего битрейта : ПеременныйОбщий поток : 3456 Кбит/сек
    ВидеоИдентификатор : 224 (0xE0)Формат : MPEG VideoВерсия формата : Version 2Профиль формата : Main@MainПараметр BVOP формата : ДаПараметр матрицы формата : ВыборочнаяПараметр GOP формата : M=4, N=12Format_Settings_PictureStructure : FrameПродолжительность : 41 м.Вид битрейта : ПеременныйБитрейт : 3195 Кбит/секШирина : 720 пикселейВысота : 576 пикселейСоотношение сторон : 16:9Частота кадров : 25,000 кадров/секСтандарт вещания : PALЦветовое пространство : YUVСубдискретизация насыщенности : 4:2:0Битовая глубина : 8 битТип развёртки : ЧересстрочнаяПорядок развёртки : Верхнее поле первоеМетод сжатия : С потерямиБит/(Пиксели*Кадры) : 0.308Временной код первого кадра : 00:41:26:07Оригинал временного кода : Group of pictures headerРазмер потока : 947 Мбайт (92%)
    АудиоИдентификатор : 192 (0xC0)Формат : MPEG AudioВерсия формата : Version 1Профиль формата : Layer 2Режим : Joint stereoРасширение режима : Intensity Stereo + MS StereoПродолжительность : 41 м.Вид битрейта : ПостоянныйБитрейт : 192 Кбит/секКаналы : 2 каналаЧастота : 48,0 КГцМетод сжатия : С потерямиЗадержка видео : -600 мс.Размер потока : 56,9 Мбайт (6%)
    Текст #1Идентификатор : 189 (0xBD)-32 (0x20)Формат : RLEФормат/Информация : Run-length encodingРежим смешивания : DVD-Video
    Текст #2Идентификатор : 189 (0xBD)-33 (0x21)Формат : RLEФормат/Информация : Run-length encodingРежим смешивания : DVD-Video
    Текст #3Идентификатор : 189 (0xBD)-34 (0x22)Формат : RLEФормат/Информация : Run-length encodingРежим смешивания : DVD-Video

    Скриншот c названием фильма

    Скриншоты

    Резервные скриншоты


    -[2'313]
    Скачать .torrent

    Скачать торрент-файл бесплатно и на максимальной скорости!

    Как скачивать? · Что такое торрент? · Рейтинг и ограничения

    !ВНИМАНИЕ!
    Сайт не распространяет и не хранит электронные версии произведений, а занимается лишь лишь предоставлением доступа к создаваемому пользователями каталогу ссылок на торрент-файлы, которые содержат только списки хеш-сумм, убедительная просьба с жалобами обращаться напрямую к пользователю. Файлы для обмена на трекере предоставлены пользователями сайта, и администрация не несёт ответственности за их содержание. Просьба не заливать файлы, защищенные авторскими правами, а также файлы нелегального содержания!


    _________________
    [Профиль] [ЛС]
    Показать сообщения:    
    Ответить на тему

    Текущее время: Сегодня, в 23:15

    Часовой пояс: GMT + 2



    Вы не можете начинать темы
    Вы не можете отвечать на сообщения
    Вы не можете редактировать свои сообщения
    Вы не можете удалять свои сообщения
    Вы не можете голосовать в опросах
    Вы не можете прикреплять файлы к сообщениям
    Вы не можете скачивать файлы