Register  ·  Log in
Forgot password?

  • Отбор / The Culling (Растем Бренемен / Rustam Branaman) [2015, США, триллер, WEB-DLRip] VO (datynet)

    Reply to topic
    Author Message


    Post 08-Jun-2015 11:42



    Отбор / The Culling
    Страна: США
    Жанр: триллер
    Год выпуска: 2015
    Продолжительность: 01:21:55
    Перевод: Одноголосый закадровый datynet
    Cубтитры: нет
    Оригинальная аудиодорожка: нет
    Режиссер: Растем Бренемен / Rustam Branaman
    В ролях: Джереми Самптер, Элизабет Дипринсио, Бретт Даверн, Крис Кой, Линси Годфри, Вирджиния Уильямс, Джонатон Шек, Харли Грэхэм
    Описание: Пятеро молодых людей выезжают за город чтобы посетить концерт. Однако их планы меняются кардинальным образом когда друзья находят на парковке семилетнюю девочку, которая по непонятным причинам осталась одна. Проводив девочку к одиноко стоящему дому они оказываются вынуждены остаться там на ночь, что вовсе не предусмотрело некое зло, обитающее в доме, зло, с которым и предстоит столкнуться ребятам.
    Качество видео: WEB-DLRip
    Формат видео: AVI
    Видео: Xvid 720x400 23.98fps 1 992 Kbps
    Аудио: Dolby AC3 48000Hz 6ch 384kbps


    Format : AVI
    Format/Info : Audio Video Interleave
    File size : 1.36 GiB
    Duration : 1h 21mn
    Overall bit rate : 2 385 Kbps
    Writing application : VirtualDubMod | || (build 2550/release)
    Writing library : VirtualDubMod build 2550/release
    ID : 0
    Format : MPEG-4 Visual
    Format profile : Advanced Simple@L5
    Format settings, BVOP : Yes
    Format settings, QPel : No
    Format settings, GMC : No warppoints
    Format settings, Matrix : Custom
    Codec ID : XVID
    Codec ID/Hint : XviD
    Duration : 1h 21mn
    Bit rate : 1 992 Kbps
    Width : 720 pixels
    Height : 400 pixels
    Display aspect ratio : 16:9
    Frame rate : 23.976 fps
    Resolution : 8 bits
    Colorimetry : 4:2:0
    Scan type : Progressive
    Bits/(Pixel*Frame) : 0.288
    Stream size : 1.14 GiB (84%)
    Writing library : XviD 73
    ID : 1
    Format : AC-3
    Format/Info : Audio Coding 3
    Codec ID : 2000
    Duration : 1h 21mn
    Bit rate mode : Constant
    Bit rate : 384 Kbps
    Channel(s) : 6 channels
    Channel positions : Front: L C R, Surround: L R, LFE
    Sampling rate : 48.0 KHz
    Stream size : 225 MiB (16%)
    Alignment : Split accross interleaves
    Interleave, duration : 42 ms (1.00 video frame)
    Interleave, preload duration : 500 ms

    Скриншот c названием фильма


    Download .torrent

    Download free and at maximum speed!

    How to Download? · What is a torrent? · Ratings and Limitations

    The site does not extend and does not store electronic(digital) versions of products, and only gives access to a reference catalogue created by users on torrent-files which contain only lists of the hash-sums, the earnest entreaty, with complaints(abuse) to access directly to the user. Files for an exchange on tracker are given by users of a site, and the administration does not bear the responsibility for their maintenance. The request to not fill in the files protected by copyrights, and also files of the illegal maintenance!

    [Profile] [PM]
    Display posts from previous:    
    Reply to topic

    The time now is: Today 08:00

    All times are GMT + 3 Hours

    You cannot post new topics in this forum
    You cannot reply to topics in this forum
    You cannot edit your posts in this forum
    You cannot delete your posts in this forum
    You cannot vote in polls in this forum
    You cannot attach files in this forum
    You cannot download files in this forum