BitTorrentTracker PerecTracker.org
BitTorrentTracker PerecTracker.org
    
Регистрация  ·  Вход
 
 · 
Забыли пароль?

  • Убить гонца / Kill the Messenger (Майкл Куэста / Michael Cuesta) [2014, США, триллер, драма, криминал, детектив, BDRip-AVC] Dub (R5) + Sub (Eng)

    Ответить на тему
     
    Автор Сообщение

    Light

    Создавать темы 08-Июн-2015 10:42

           

    [Цитировать]

    Убить гонца
    Kill the Messenger
    «А ты умеешь хранить государственную тайну?»


    Страна: США
    Жанр: триллер, драма, криминал, детектив
    Год выпуска: 2014
    Продолжительность: 01:51:55
    Перевод: Профессиональный (полное дублирование) [Лицензия R5]
    Cубтитры: Английские
    Оригинальная аудиодорожка: нет
    Режиссер:
    Майкл Куэста / Michael Cuesta
    В ролях:
    Джереми Реннер, Роберт Патрик, Роберт Пралго, Хаджи Голайтли, Тед Хукаби, Мэри Элизабет Уинстэд, Лукас Хеджес, Розмари ДеУитт, Мэттью Линтц, Паркер Дуглас
    Описание:
    Репортер, собирая материал для статьи, попадает в нестандартную ситуацию: он находит секретные файлы ЦРУ, в которых четко прописано причастие госорганов к транспортировке кокаина в особо крупных размерах в Калифорнию. Несмотря на все неприятности, последующие за разоблачением, публикация выходит в одном из самых известных журналов США. Существование репортера становится нежелательным для всех, кто хоть как-то соприкасался с «кокаиновым» делом. После широкой огласки статьи убить журналиста просто так нельзя, ведь тогда правдивость материала станет очевидной, зато ведомство может обвинить репортера в другом…

    Релиз:
    Автор рипа: Stalker oK
    Сэмпл
    Качество видео: BDRip-AVC [Blu-ray 1080p-LAZERS]
    Формат видео: MKV
    Видео кодек: AVC
    Аудио кодек: АС3
    Видео: 1409 Кбит/сек, 936*390 (2,40:1), в 24,000 кадр/сек, AVC
    Аудио: Russian, 448 Кбит/сек, 48,0 КГц, 16 бит, 6 канала(ов), AC-3

    MediaInfo

    Общее
    Уникальный идентификатор : 213952331070679281311696794842988458393 (0xA0F5B8590040A9D1BAB353F7B8C2B199)
    Полное имя : L:\рипы\Убить гонца\Ubit'.gonca.2014.BDRip-AVC.Dub.1.45Gb...stalkerok.new-team.mkv
    Формат : Matroska
    Размер файла : 1,45 Гбайт
    Продолжительность : 1 ч. 51 м.
    Общий поток : 1858 Кбит/сек
    Название фильма : Kill the Messenger, 2014 (New-Team) (Rip by Stalker oK)
    Дата кодирования : UTC 2015-06-06 17:04:29
    Программа кодирования : mkvmerge v7.9.0 ('Birds') 64bit
    Библиотека кодирования : libebml v1.3.1 + libmatroska v1.4.2
    Видео
    Идентификатор : 1
    Формат : AVC
    Формат/Информация : Advanced Video Codec
    Профиль формата : High@L4.1
    Параметр CABAC формата : Да
    Параметр ReFrames формата : 12 кадры
    Идентификатор кодека : V_MPEG4/ISO/AVC
    Продолжительность : 1 ч. 51 м.
    Битрейт : 1409 Кбит/сек
    Ширина : 936 пикс.
    Высота : 390 пикс.
    Соотношение сторон : 2,40:1
    Частота кадров : 24,000 кадр/сек
    Цветовое пространство : YUV
    Подвыборка цветности : 4:2:0
    Битовая глубина : 8 бит
    Тип развёртки : Прогрессивная
    Бит/(Пиксели*Кадры) : 0.161
    Размер потока : 1,07 Гбайт (74%)
    Библиотека кодирования : x264 core 146 r2538kMod 121396c
    Настройки программы : cabac=1 / ref=12 / deblock=1:-2:-1 / analyse=0x3:0x133 / me=umh / subme=11 / psy=1 / fade_compensate=0.00 / psy_rd=1.00:0.05 / mixed_ref=1 / me_range=32 / chroma_me=1 / trellis=2 / 8x8dct=1 / cqm=0 / deadzone=21,11 / fast_pskip=0 / chroma_qp_offset=-3 / threads=12 / lookahead_threads=3 / sliced_threads=0 / nr=0 / decimate=0 / interlaced=0 / bluray_compat=0 / constrained_intra=0 / fgo=0 / bframes=14 / b_pyramid=2 / b_adapt=2 / b_bias=0 / direct=3 / weightb=1 / open_gop=0 / weightp=2 / keyint=240 / keyint_min=24 / scenecut=40 / intra_refresh=0 / rc_lookahead=40 / rc=2pass / mbtree=0 / bitrate=1409 / ratetol=1.0 / qcomp=0.65 / qpmin=0 / qpmax=69 / qpstep=4 / cplxblur=20.0 / qblur=0.5 / vbv_maxrate=50000 / vbv_bufsize=62500 / nal_hrd=none / filler=0 / ip_ratio=1.40 / pb_ratio=1.30 / aq=3:1.00
    Аудио
    Идентификатор : 2
    Формат : AC-3
    Формат/Информация : Audio Coding 3
    Расширение режима : CM (complete main)
    Идентификатор кодека : A_AC3
    Продолжительность : 1 ч. 51 м.
    Вид битрейта : Постоянный
    Битрейт : 448 Кбит/сек
    Канал(ы) : 6 канала(ов)
    Расположение каналов : Front: L C R, Side: L R, LFE
    Частота : 48,0 КГц
    Битовая глубина : 16 бит
    Метод сжатия : С потерями
    Размер потока : 359 Мбайт (24%)
    Заголовок : Дублированный
    Язык : Russian
    Текст #2
    Идентификатор : 4
    Формат : UTF-8
    Идентификатор кодека : S_TEXT/UTF8
    Идентификатор кодека/Информация : UTF-8 Plain Text
    Заголовок : English
    Язык : English
    Меню
    00:00:00.000 : en:00:00:00.000
    00:09:41.792 : en:00:09:41.792
    00:17:08.625 : en:00:17:08.625
    00:29:09.875 : en:00:29:09.875
    00:37:45.833 : en:00:37:45.833
    00:44:37.708 : en:00:44:37.708
    00:56:24.917 : en:00:56:24.917
    01:03:09.208 : en:01:03:09.208
    01:13:08.375 : en:01:13:08.375
    01:19:59.250 : en:01:19:59.250
    01:30:12.958 : en:01:30:12.958
    01:42:57.000 : en:01:42:57.000

    Скриншоты

    Скачать .torrent

    Скачать торрент-файл бесплатно и на максимальной скорости!

    Как скачивать? · Что такое торрент? · Рейтинг и ограничения

    !ВНИМАНИЕ!
    Сайт не распространяет и не хранит электронные версии произведений, а занимается лишь лишь предоставлением доступа к создаваемому пользователями каталогу ссылок на торрент-файлы, которые содержат только списки хеш-сумм, убедительная просьба с жалобами обращаться напрямую к пользователю. Файлы для обмена на трекере предоставлены пользователями сайта, и администрация не несёт ответственности за их содержание. Просьба не заливать файлы, защищенные авторскими правами, а также файлы нелегального содержания!


    _________________
    [Профиль] [ЛС]
    Показать сообщения:    
    Ответить на тему

    Текущее время: Сегодня, в 19:46

    Часовой пояс: GMT + 2



    Вы не можете начинать темы
    Вы не можете отвечать на сообщения
    Вы не можете редактировать свои сообщения
    Вы не можете удалять свои сообщения
    Вы не можете голосовать в опросах
    Вы не можете прикреплять файлы к сообщениям
    Вы не можете скачивать файлы