BitTorrentTracker PerecTracker.org
BitTorrentTracker PerecTracker.org
    
Регистрация  ·  Вход
 
 · 
Забыли пароль?

  • Маленькая смерть / The Little Death (Джошуа Лосон / Josh Lawson) [2014, Австралия, комедия, HDRip] MVO

    Ответить на тему
     
    Автор Сообщение

    Light

    Создавать темы 08-Июн-2015 10:42

           

    [Цитировать]

    Маленькая смерть / The Little Death
    Страна: Австралия
    Жанр: комедия, мелодрама, драма
    Год выпуска: 2014
    Продолжительность:01:36:22
    Перевод: Профессиональный (многоголосый закадровый)
    Оригинальная аудиодорожка: нет
    Cубтитры: нет
    Режиссер: Джошуа Лосон / Josh Lawson
    В ролях:Бояна Новакович, Джошуа Лосон, Дэймон Херриман, Бен Лосон, Тэсним Рок, Лиза МакКьюн, Лейчи Халм, Кейт Малвэйни, Патрик Браммалль, Т.Дж. Пауэр
    Описание: Сюжет фильма рассказывает о взаимоотношениях нескольких любовных пар. Пол и Мэйв всячески пытаются разнообразить свою интимную жизнь, прибегая к достаточно жестоким методам. Правда тайные фантазии девушки немного шокируют ее парня, но он старается не показывать этого. Ричард и Рованна на протяжении некоторого времени пытаются зачать ребенка, однако все их попытки уже давно превратились в механические действия, не приносящие никакого удовольствия. В это время в отношениях Дэна и Эви появляется довольно много проблем и они обращаются за помощью к профессиональному консультанту.
    Все они имеют тайные страхи и желания, но для каждого из них расставание равносильно смерти. Всеми способами они пытаются сохранить свои отношения, стараясь сделать любимого человека счастливым, что довольно часто приводит к курьезным ситуациям…


    Качество: HDRip
    Контейнер: AVI
    Видео: 720x304 (2.37:1), 24.000 fps, XviD build 50 ~1659 kbps avg, 0.32 bit/pixel
    Аудио:48 kHz, AC3 Dolby Digital, 3/2 (L,C,R,l,r) + LFE ch, ~384 kbps

    MI

    Общее
    Полное имя : C:\Users\Вячеслав\Downloads\The_Little_Death_ HDRip_Некул.avi
    Формат : AVI
    Формат/Информация : Audio Video Interleave
    Размер файла : 1,37 Гбайт
    Продолжительность : 1 ч. 36 м.
    Общий поток : 2039 Кбит/сек
    Программа кодирования : VirtualDubMod 1.5.10.3 | www.virtualdub-fr.org || (build 2550/release)
    Библиотека кодирования : VirtualDubMod build 2550/release
    Видео
    Идентификатор : 0
    Формат : MPEG-4 Visual
    Профиль формата : Advanced Simple@L5
    Параметр BVOP формата : 1
    Параметр QPel формата : Нет
    Параметр GMC формата : Без точки перехода
    Параметр матрицы формата : Default (MPEG)
    Идентификатор кодека : DX50
    Идентификатор кодека/Подсказка : DivX 5
    Продолжительность : 1 ч. 36 м.
    Битрейт : 1660 Кбит/сек
    Ширина : 720 пикселей
    Высота : 304 пикселя
    Соотношение сторон : 2,35:1
    Частота кадров : 24,000 кадра/сек
    Цветовое пространство : YUV
    Субдискретизация насыщенности : 4:2:0
    Битовая глубина : 8 бит
    Тип развёртки : Прогрессивная
    Метод сжатия : С потерями
    Бит/(Пиксели*Кадры) : 0.316
    Размер потока : 1,12 Гбайт (81%)
    Библиотека кодирования : XviD 1.2.1 (UTC 2008-12-04)
    Аудио
    Идентификатор : 1
    Формат : AC-3
    Формат/Информация : Audio Coding 3
    Расширение режима : CM (complete main)
    Параметр Endianness формата : Big
    Идентификатор кодека : 2000
    Продолжительность : 1 ч. 32 м.
    Вид битрейта : Постоянный
    Битрейт : 384 Кбит/сек
    Каналы : 6 каналов
    Расположение каналов : Front: L C R, Side: L R, LFE
    Частота : 48,0 КГц
    Битовая глубина : 16 бит
    Метод сжатия : С потерями
    Размер потока : 255 Мбайт (18%)
    Выравнивание : Разделение по промежуткам
    Продолжительность промежутка : 43 мс. (1,04 видеокадр)
    Время предзагрузки промежутка : 500 мс.

    Скриншоты

    Скачать .torrent

    Скачать торрент-файл бесплатно и на максимальной скорости!

    Как скачивать? · Что такое торрент? · Рейтинг и ограничения

    !ВНИМАНИЕ!
    Сайт не распространяет и не хранит электронные версии произведений, а занимается лишь лишь предоставлением доступа к создаваемому пользователями каталогу ссылок на торрент-файлы, которые содержат только списки хеш-сумм, убедительная просьба с жалобами обращаться напрямую к пользователю. Файлы для обмена на трекере предоставлены пользователями сайта, и администрация не несёт ответственности за их содержание. Просьба не заливать файлы, защищенные авторскими правами, а также файлы нелегального содержания!


    _________________
    [Профиль] [ЛС]
    Показать сообщения:    
    Ответить на тему

    Текущее время: Сегодня, в 23:59

    Часовой пояс: GMT + 2



    Вы не можете начинать темы
    Вы не можете отвечать на сообщения
    Вы не можете редактировать свои сообщения
    Вы не можете удалять свои сообщения
    Вы не можете голосовать в опросах
    Вы не можете прикреплять файлы к сообщениям
    Вы не можете скачивать файлы