BitTorrentTracker PerecTracker.org
BitTorrentTracker PerecTracker.org
    
Регистрация  ·  Вход
 
 · 
Забыли пароль?

  • Маленькая смерть / The Little Death (Джошуа Лосон / Josh Lawson) [2014, Австралия, комедия, HDRip MVO

    Ответить на тему
     
    Автор Сообщение

    Light

    Создавать темы 08-Июн-2015 10:42

           

    [Цитировать]

    Маленькая смерть / The Little Death
    Страна: Австралия
    Студия: Head Gear Films, Metrol Technology, See Pictures
    Жанр: Комедия
    Год выпуска: 2014
    Продолжительность: 01:36:22
    Перевод: Профессиональный (многоголосый закадровый)
    Cубтитры: нет
    Режиссер: Джошуа Лосон / Josh Lawson
    В ролях: Бояна Новакович, Джошуа Лосон, Дэймон Херриман, Бен Лосон, Тэсним Рок, Лиза МакКьюн, Лейчи Халм, Кейт Малвэйни, Патрик Браммалль, Т.Дж. Пауэр
    Описание: Сюжет фильма рассказывает о взаимоотношениях нескольких любовных пар. Пол и Мэйв всячески пытаются разнообразить свою интимную жизнь, прибегая к достаточно жестоким методам. Правда тайные фантазии девушки немного шокируют ее парня, но он старается не показывать этого. Ричард и Рованна на протяжении некоторого времени пытаются зачать ребенка, однако все их попытки уже давно превратились в механические действия, не приносящие никакого удовольствия. В это время в отношениях Дэна и Эви появляется довольно много проблем и они обращаются за помощью к профессиональному консультанту. Все они имеют тайные страхи и желания, но для каждого из них расставание равносильно смерти. Всеми способами они пытаются сохранить свои отношения, стараясь сделать любимого человека счастливым, что довольно часто приводит к курьезным ситуациям…

    Качество видео: HDRip
    Формат видео: AVI
    Видео: 688x288 (2.39:1), 24.000 fps, XviD build 50 ~940 kbps avg, 0.20 bit/pixel
    Аудио: Русский 48 kHz, MPEG Layer 3, 2 ch, ~128.00 kbps avg

    MediaInfo

    Формат : AVI
    Формат/Информация : Audio Video Interleave
    Размер файла : 743 Мбайт
    Продолжительность : 1 ч. 36 м.
    Общий поток : 1078 Кбит/сек
    Программа кодирования : VirtualDubMod 1.5.10.3 | www.virtualdub-fr.org || (build 2550/release)
    Библиотека кодирования : VirtualDubMod build 2550/release
    Видео
    Идентификатор : 0
    Формат : MPEG-4 Visual
    Профиль формата : Advanced Simple@L5
    Параметр BVOP формата : 1
    Параметр QPel формата : Нет
    Параметр GMC формата : Без точки перехода
    Параметр матрицы формата : Default (MPEG)
    Идентификатор кодека : XVID
    Идентификатор кодека/Подсказка : XviD
    Продолжительность : 1 ч. 36 м.
    Битрейт : 941 Кбит/сек
    Ширина : 688 пикселей
    Высота : 288 пикселей
    Соотношение сторон : 2,40:1
    Частота кадров : 24,000 кадра/сек
    Цветовое пространство : YUV
    Субдискретизация насыщенности : 4:2:0
    Битовая глубина : 8 бит
    Тип развёртки : Прогрессивная
    Метод сжатия : С потерями
    Бит/(Пиксели*Кадры) : 0.198
    Размер потока : 648 Мбайт (87%)
    Библиотека кодирования : XviD 1.2.1 (UTC 2008-12-04)
    Аудио
    Идентификатор : 1
    Формат : MPEG Audio
    Версия формата : Version 1
    Профиль формата : Layer 3
    Идентификатор кодека : 55
    Идентификатор кодека/Подсказка : MP3
    Продолжительность : 1 ч. 36 м.
    Вид битрейта : Постоянный
    Битрейт : 128 Кбит/сек
    Каналы : 2 канала
    Частота : 48,0 КГц
    Метод сжатия : С потерями
    Размер потока : 88,2 Мбайт (12%)
    Выравнивание : Соединение по промежуткам
    Продолжительность промежутка : 42 мс. (1,00 видеокадр)
    Время предзагрузки промежутка : 504 мс.
    Библиотека кодирования : LAME3.99r
    Настройки программы : -m s -V 4 -q 2 -lowpass 17 -b 128

    Скриншоты

    Скачать .torrent

    Скачать торрент-файл бесплатно и на максимальной скорости!

    Как скачивать? · Что такое торрент? · Рейтинг и ограничения

    !ВНИМАНИЕ!
    Сайт не распространяет и не хранит электронные версии произведений, а занимается лишь лишь предоставлением доступа к создаваемому пользователями каталогу ссылок на торрент-файлы, которые содержат только списки хеш-сумм, убедительная просьба с жалобами обращаться напрямую к пользователю. Файлы для обмена на трекере предоставлены пользователями сайта, и администрация не несёт ответственности за их содержание. Просьба не заливать файлы, защищенные авторскими правами, а также файлы нелегального содержания!


    _________________
    [Профиль] [ЛС]
    Показать сообщения:    
    Ответить на тему

    Текущее время: Сегодня, в 18:23

    Часовой пояс: GMT + 2



    Вы не можете начинать темы
    Вы не можете отвечать на сообщения
    Вы не можете редактировать свои сообщения
    Вы не можете удалять свои сообщения
    Вы не можете голосовать в опросах
    Вы не можете прикреплять файлы к сообщениям
    Вы не можете скачивать файлы