BitTorrentTracker PerecTracker.org
BitTorrentTracker PerecTracker.org
    
Регистрация  ·  Вход
 
 · 
Забыли пароль?

  • Три плюс два (Генрих Оганисян) [1963, комедия, HDTVRip-AVC] (полная широкоэкранная версия)

    Ответить на тему
     
    Автор Сообщение

    Light

    Создавать темы 08-Июн-2015 02:18

           

    [Цитировать]

    Три плюс два
    Жанр: комедия
    Год выпуска: 1963
    Продолжительность: 01:34:57
    Субтитры: нет
    Режиссёр: Генрих Оганисян
    В ролях: Андрей Миронов, Евгений Жариков, Геннадий Нилов, Наталия Кустинская, Наталья Фатеева
    Описание: Легкая молодежная комедия на тему летнего отдыха. Не характерно для советского периода - дикий кемпинг на личном автотранспорте, автомобили были в жутком дефиците и стоили дорого. Кроме того, не часто встречались и дикие безлюдные пляжи с живописными видами. Хотя, для курортного романа условия идеальные...
    Доп. информация: длиннее версии 4:3 на 12 минут.
    Семпл: https://www.sendspace.com/file/55qer2
    источник http://perectracker.org/viewtopic.php?t=4957029
    Качество видео: HDTVRip-AVC
    Формат видео: MKV
    Видео: 1152х488 (2.35:1), AVC (H.264), 25 fps, 2901 kbps avg, 0.206 bit/pixel
    Аудио: 48 KHz, AC3, 6 ch, 384 Kbps

    MediaInfo

    Общее
    Уникальный идентификатор : 202765347369578725488182180622734523604 (0x988B2F77931F91A58377387CE2CCFCD4)
    Полное имя : D:\КИНО\Три плюс два.mkv
    Формат : Matroska
    Версия формата : Version 4 / Version 2
    Размер файла : 2,18 Гбайт
    Продолжительность : 1 ч. 34 м.
    Общий поток : 3287 Кбит/сек
    Дата кодирования : UTC 2015-06-07 18:45:11
    Программа кодирования : mkvmerge v7.7.0 ('Six Voices') 32bit built on Feb 28 2015 23:23:00
    Библиотека кодирования : libebml v1.3.1 + libmatroska v1.4.2
    _STATISTICS_WRITING_APP : mkvmerge v7.7.0 ('Six Voices') 32bit built on Feb 28 2015 23:23:00
    _STATISTICS_WRITING_DATE_UTC : 2015-06-07 18:45:11
    _STATISTICS_TAGS : BPS DURATION NUMBER_OF_FRAMES NUMBER_OF_BYTES
    DURATION : 01:34:57.024000000
    NUMBER_OF_FRAMES : 178032
    NUMBER_OF_BYTES : 273457152
    Видео
    Идентификатор : 1
    Формат : AVC
    Формат/Информация : Advanced Video Codec
    Профиль формата : High@L4.1
    Параметр CABAC формата : Да
    Параметр ReFrames формата : 8 кадров
    Идентификатор кодека : V_MPEG4/ISO/AVC
    Продолжительность : 1 ч. 34 м.
    Битрейт : 2901 Кбит/сек
    Ширина : 1152 пикселя
    Высота : 488 пикселей
    Соотношение сторон : 2,35:1
    Режим частоты кадров : Постоянный
    Частота кадров : 25,000 кадров/сек
    Цветовое пространство : YUV
    Субдискретизация насыщенности : 4:2:0
    Битовая глубина : 8 бит
    Тип развёртки : Прогрессивная
    Бит/(Пиксели*Кадры) : 0.206
    Размер потока : 1,88 Гбайт (86%)
    Библиотека кодирования : x264 core 146 r2538 121396c
    Настройки программы : cabac=1 / ref=8 / deblock=1:-2:-1 / analyse=0x3:0x133 / me=umh / subme=9 / psy=1 / psy_rd=1.00:0.00 / mixed_ref=1 / me_range=24 / chroma_me=1 / trellis=2 / 8x8dct=1 / cqm=0 / deadzone=21,11 / fast_pskip=0 / chroma_qp_offset=-2 / threads=3 / lookahead_threads=1 / sliced_threads=0 / nr=0 / decimate=1 / interlaced=0 / bluray_compat=0 / constrained_intra=0 / bframes=8 / b_pyramid=2 / b_adapt=2 / b_bias=0 / direct=3 / weightb=1 / open_gop=0 / weightp=2 / keyint=250 / keyint_min=25 / scenecut=40 / intra_refresh=0 / rc_lookahead=60 / rc=2pass / mbtree=1 / bitrate=2901 / ratetol=1.0 / qcomp=0.60 / qpmin=10 / qpmax=51 / qpstep=4 / cplxblur=20.0 / qblur=0.5 / vbv_maxrate=50000 / vbv_bufsize=50000 / nal_hrd=none / filler=0 / ip_ratio=1.40 / aq=1:1.00
    Default : Да
    Forced : Нет
    Аудио
    Идентификатор : 2
    Формат : AC-3
    Формат/Информация : Audio Coding 3
    Расширение режима : CM (complete main)
    Параметр Endianness формата : Big
    Идентификатор кодека : A_AC3
    Продолжительность : 1 ч. 34 м.
    Вид битрейта : Постоянный
    Битрейт : 384 Кбит/сек
    Каналы : 6 каналов
    Расположение каналов : Front: L C R, Side: L R, LFE
    Частота : 48,0 КГц
    Битовая глубина : 16 бит
    Метод сжатия : С потерями
    Размер потока : 261 Мбайт (12%)
    Default : Да
    Forced : Нет

    Скриншоты

    лог

    ---[Information] [07.06.2015 10:37:16] avs [info]: 1152x488p 1:1 @ 25/1 fps (cfr)
    ---[Information] [07.06.2015 10:37:16] x264 [info]: using SAR=1/1
    ---[Information] [07.06.2015 10:37:16] x264 [info]: using cpu capabilities: MMX2 SSE2Fast LZCNT
    ---[Information] [07.06.2015 10:37:16] x264 [info]: profile High, level 4.1
    ---[Information] [07.06.2015 18:31:54] x264 [info]: frame I:896 Avg QP:17.26 size:104952
    ---[Information] [07.06.2015 18:31:54] x264 [info]: frame P:41565 Avg QP:20.34 size: 30324
    ---[Information] [07.06.2015 18:31:54] x264 [info]: frame B:99966 Avg QP:23.55 size: 7118
    ---[Information] [07.06.2015 18:31:54] x264 [info]: consecutive B-frames: 4.8% 6.2% 9.6% 62.8% 9.7% 5.8% 0.8% 0.3% 0.1%
    ---[Information] [07.06.2015 18:31:54] x264 [info]: mb I I16..4: 2.0% 79.8% 18.3%
    ---[Information] [07.06.2015 18:31:54] x264 [info]: mb P I16..4: 0.4% 6.8% 1.5% P16..4: 46.5% 22.3% 19.1% 1.0% 0.3% skip: 2.0%
    ---[Information] [07.06.2015 18:31:54] x264 [info]: mb B I16..4: 0.0% 0.8% 0.2% B16..8: 36.6% 8.6% 2.6% direct: 5.0% skip:46.1% L0:36.8% L1:45.7% BI:17.4%
    ---[Information] [07.06.2015 18:31:54] x264 [info]: 8x8 transform intra:77.6% inter:63.7%
    ---[Information] [07.06.2015 18:31:54] x264 [info]: direct mvs spatial:96.8% temporal:3.2%
    ---[Information] [07.06.2015 18:31:54] x264 [info]: coded y,uvDC,uvAC intra: 92.1% 73.4% 33.5% inter: 29.3% 24.6% 1.2%
    ---[Information] [07.06.2015 18:31:54] x264 [info]: i16 v,h,dc,p: 11% 42% 6% 41%
    ---[Information] [07.06.2015 18:31:54] x264 [info]: i8 v,h,dc,ddl,ddr,vr,hd,vl,hu: 10% 15% 4% 8% 13% 11% 15% 10% 15%
    ---[Information] [07.06.2015 18:31:54] x264 [info]: i4 v,h,dc,ddl,ddr,vr,hd,vl,hu: 12% 16% 2% 7% 13% 11% 15% 9% 15%
    ---[Information] [07.06.2015 18:31:54] x264 [info]: i8c dc,h,v,p: 33% 33% 19% 15%
    ---[Information] [07.06.2015 18:31:54] x264 [info]: Weighted P-Frames: Y:3.6% UV:0.7%
    ---[Information] [07.06.2015 18:31:54] x264 [info]: ref P L0: 55.5% 17.3% 13.5% 3.9% 3.2% 2.5% 2.2% 1.5% 0.3% 0.0%
    ---[Information] [07.06.2015 18:31:54] x264 [info]: ref B L0: 84.9% 7.9% 3.2% 1.5% 1.2% 0.8% 0.4%
    ---[Information] [07.06.2015 18:31:54] x264 [info]: ref B L1: 96.0% 4.0%
    ---[Information] [07.06.2015 18:31:54] x264 [info]: kb/s:2901.15
    ---[Information] [07.06.2015 18:31:54] encoded 142427 frames, 5.00 fps, 2901.15 kb/s
    Скачать .torrent

    Скачать торрент-файл бесплатно и на максимальной скорости!

    Как скачивать? · Что такое торрент? · Рейтинг и ограничения

    !ВНИМАНИЕ!
    Сайт не распространяет и не хранит электронные версии произведений, а занимается лишь лишь предоставлением доступа к создаваемому пользователями каталогу ссылок на торрент-файлы, которые содержат только списки хеш-сумм, убедительная просьба с жалобами обращаться напрямую к пользователю. Файлы для обмена на трекере предоставлены пользователями сайта, и администрация не несёт ответственности за их содержание. Просьба не заливать файлы, защищенные авторскими правами, а также файлы нелегального содержания!


    _________________
    [Профиль] [ЛС]
    Показать сообщения:    
    Ответить на тему

    Текущее время: Сегодня, в 06:00

    Часовой пояс: GMT + 2



    Вы не можете начинать темы
    Вы не можете отвечать на сообщения
    Вы не можете редактировать свои сообщения
    Вы не можете удалять свои сообщения
    Вы не можете голосовать в опросах
    Вы не можете прикреплять файлы к сообщениям
    Вы не можете скачивать файлы