BitTorrentTracker PerecTracker.org
BitTorrentTracker PerecTracker.org
    
Регистрация  ·  Вход
 
 · 
Забыли пароль?

  • Рапунцель: Счастлива навсегда в 3Д / Tangled Ever After 3D (Нэйтан Грено, Байрон / Nathan Greno, Byron) [2012, Мультфильм, Комедия, Короткометражка, Семейный, HDrip] Interlaced / интерлейс

    Ответить на тему
     
    Автор Сообщение

    Flirldrerve

    Создавать темы 08-Июн-2015 02:18

           

    [Цитировать]

    Рапунцель: Счастлива навсегда / Tangled Ever After
    Год выпуска: 2012
    Страна: США
    Студия: Walt Disney Animation Studios
    Жанр: Мультфильм, Комедия, Короткометражка, Семейный
    Продолжительность: 00:06:27-Перевод: Профессиональный (дублированный)
    Русские субтитры: есть
    Режиссер на русском: Нэйтан Грено, Байрон
    Режиссер на английском: Nathan Greno, Byron
    -
    Роли озвучивали: Закари Левай, Мэнди Мур, Алан Дэйл, Пол Ф. Томпкинс, Кэри Уолгрен, Марк Аллан Стюарт, Байрон Ховард, Нэйтан Грено-Описание: В волшебном королевстве грандиозный праздник: Рапунцель идет под венец! Все затаив дыхание ждут торжественной минуты. Но свадебная церемония грозит обернуться катастрофой: конь Максимус и хамелеон Паскаль теряют подвенечные кольца. У них остается всего несколько минут, чтобы найти пропажу.-
    -Качество: HDrip
    Контейнер: MKV
    Формат 3D: Чересстрочный / Interlace -- (Interleaved Lines)
    Порядок ракурсов: левый ракурс первый
    Видео кодек: x264
    Аудио кодек: AC3
    Видео: AVC, 1280x720, 16:9, 8 000 Kbps, 23.976 fps
    Аудио: Русский / AC3 / 48 KHz / 5.1 ch / 640 Kbps
    Субтитры: Russian VobSub (Отключаемые)-

    MediaInfo

    General
    Unique ID : 197445772328972421621890394433526932448 (0x948AAC2B105D0CA79D61CB9CC70FA3E0)
    Complete name : F:\3D-Interlaced\Tangled_Ever_After(2012)Interleaved_Lines-HDRip_serj69.mkv
    Format : Matroska
    Format version : Version 4 / Version 2
    File size : 399 MiB
    Duration : 6mn 27s
    Overall bit rate : 8 630 Kbps
    Encoded date : UTC 2015-05-07 16:31:21
    Writing application : mkvmerge v7.8.0 ('River Man') 32bit built on Mar 27 2015 16:18:02
    Writing library : Lavf56.30.100
    Video
    ID : 1
    Format : AVC
    Format/Info : Advanced Video Codec
    Format profile : High@L3.1
    MultiView_Count : 2
    MultiView_Layout : Row Interleaved (left eye first)
    Format settings, CABAC : Yes
    Format settings, ReFrames : 4 frames
    Codec ID : V_MPEG4/ISO/AVC
    Duration : 6mn 27s
    Bit rate : 8 000 Kbps
    Width : 1 280 pixels
    Height : 720 pixels
    Display aspect ratio : 16:9
    Frame rate mode : Constant
    Frame rate : 23.976 fps
    Color space : YUV
    Chroma subsampling : 4:2:0
    Bit depth : 8 bits
    Scan type : Progressive
    Bits/(Pixel*Frame) : 0.362
    Stream size : 361 MiB (91%)
    Writing library : x264 core 146 r2538 121396c
    Encoding settings : cabac=1 / ref=3 / deblock=1:0:0 / analyse=0x3:0x113 / me=hex / subme=7 / psy=1 / psy_rd=1.00:0.00 / mixed_ref=1 / me_range=16 / chroma_me=1 / trellis=1 / 8x8dct=1 / cqm=0 / deadzone=21,11 / fast_pskip=1 / chroma_qp_offset=-2 / threads=1 / lookahead_threads=1 / sliced_threads=0 / nr=0 / decimate=1 / interlaced=0 / bluray_compat=0 / constrained_intra=0 / bframes=3 / b_pyramid=2 / b_adapt=1 / b_bias=0 / direct=1 / weightb=1 / open_gop=0 / weightp=2 / keyint=250 / keyint_min=23 / scenecut=40 / intra_refresh=0 / rc_lookahead=40 / rc=2pass / mbtree=1 / bitrate=8000 / ratetol=1.0 / qcomp=0.60 / qpmin=0 / qpmax=69 / qpstep=4 / cplxblur=20.0 / qblur=0.5 / ip_ratio=1.40 / aq=1:1.00
    Default : Yes
    Forced : No
    Audio
    ID : 2
    Format : AC-3
    Format/Info : Audio Coding 3
    Mode extension : CM (complete main)
    Format settings, Endianness : Big
    Codec ID : A_AC3
    Duration : 6mn 27s
    Bit rate mode : Constant
    Bit rate : 640 Kbps
    Channel(s) : 6 channels
    Channel positions : Front: L C R, Side: L R, LFE
    Sampling rate : 48.0 KHz
    Bit depth : 16 bits
    Compression mode : Lossy
    Delay relative to video : -83ms
    Stream size : 29.6 MiB (7%)
    Language : Russian
    Default : Yes
    Forced : No
    Text
    ID : 3
    Format : VobSub
    Muxing mode : zlib
    Codec ID : S_VOBSUB
    Codec ID/Info : The same subtitle format used on DVDs
    Language : Russian
    Default : Yes
    Forced : No

    Скриншоты

    Скачать .torrent

    Скачать торрент-файл бесплатно и на максимальной скорости!

    Как скачивать? · Что такое торрент? · Рейтинг и ограничения

    !ВНИМАНИЕ!
    Сайт не распространяет и не хранит электронные версии произведений, а занимается лишь лишь предоставлением доступа к создаваемому пользователями каталогу ссылок на торрент-файлы, которые содержат только списки хеш-сумм, убедительная просьба с жалобами обращаться напрямую к пользователю. Файлы для обмена на трекере предоставлены пользователями сайта, и администрация не несёт ответственности за их содержание. Просьба не заливать файлы, защищенные авторскими правами, а также файлы нелегального содержания!


    _________________
    [Профиль] [ЛС]
    Показать сообщения:    
    Ответить на тему

    Текущее время: Сегодня, в 00:21

    Часовой пояс: GMT + 2



    Вы не можете начинать темы
    Вы не можете отвечать на сообщения
    Вы не можете редактировать свои сообщения
    Вы не можете удалять свои сообщения
    Вы не можете голосовать в опросах
    Вы не можете прикреплять файлы к сообщениям
    Вы не можете скачивать файлы