BitTorrentTracker PerecTracker.org
BitTorrentTracker PerecTracker.org
    
Регистрация  ·  Вход
 
 · 
Забыли пароль?

  • Ночной продавец (Валерий Рожнов) [2004, Чёрная комедия, игровой фильм, DVDRip]

    Ответить на тему
     
    Автор Сообщение

    rechyn

    Создавать темы 07-Июн-2015 22:06

           

    [Цитировать]

    Ночной продавец
    Жанр: Чёрная комедия, игровой фильм
    Год выпуска: 2004
    Продолжительность: 01:23:49
    Режиссёр: Валерий Рожнов
    В ролях: Павел Баршак, Виктор Сухоруков, Ингеборга Дапкунайте, Андрей Краско, Вячеслав Разбегаев, Мария Шалаева, Андрей Мерзликин, Спартак Мишулин, Константин Мурзенко, Юрий Нифонтов
    Описание: Его время – ночь. Его погода – дождь. Именно после дождливых ночей в городе находили истерзанные тела его жертв. Именно в такую ночь студент Даня заступает на смену в круглосуточный магазинчик. Даня – ночной продавец супермаркета. И угораздило же его польститься на жену хозяина, которая, пока муж играл в казино, решила развлечься с Даней! Сыщик-милиционер, заглянув в магазин, поделился со студентом наблюдением, которое подсказывала ему сыщицкая интуиция: «В эту ночь маньяк обязательно снова выйдет на охоту…» Милиционер не ошибся: злодей действительно искал жертву – и потому тоже заглянул в ночной магазин…Сэмпл: http://sendfile.su/1126180
    Качество видео: DVDRip
    Формат видео: AVI
    Видео: 720x368 (1.96:1), XviD MPEG-4, 967 kbps avg, 25 fps, 0.15 bit/pixel
    Аудио: Русский, 48 kHz, AC3 Dolby Digital, 2/0 (L,R) ch, 192 kbps

    MediaInfo

    D:\Мои документы\Моё видео\Фильмы\Nochnoy prodavec.avi
    General
    Complete name : D:\Мои документы\Моё видео\Фильмы\Nochnoy prodavec.avi
    Format : AVI
    Format/Info : Audio Video Interleave
    File size : 701 MiB
    Duration : 1h 23mn
    Overall bit rate : 1 169 Kbps
    Writing application : VirtualDubMod 1.5.10.2 (build 2540/release)
    Writing library : VirtualDubMod build 2540/release
    Video #0
    ID : 0
    Format : MPEG-4 Visual
    Format profile : Advanced Simple@L5
    Format settings, BVOP : Yes
    Format settings, QPel : Yes
    Format settings, GMC : No warppoints
    Format settings, Matrix : Default (H.263)
    Muxing mode : Packed bitstream
    Codec ID : XVID
    Codec ID/Hint : XviD
    Duration : 1h 23mn
    Bit rate : 968 Kbps
    Width : 720 pixels
    Height : 368 pixels
    Display aspect ratio : 1.957
    Frame rate : 25.000 fps
    Color space : YUV
    Chroma subsampling : 4:2:0
    Bit depth : 8 bits
    Scan type : Progressive
    Compression mode : Lossy
    Bits/(Pixel*Frame) : 0.146
    Stream size : 580 MiB (83%)
    Writing library : XviD 1.1.0 (UTC 2005-11-22)
    Audio #1
    ID : 1
    Format : AC-3
    Format/Info : Audio Coding 3
    Mode extension : CM (complete main)
    Codec ID : 2000
    Duration : 1h 23mn
    Bit rate mode : Constant
    Bit rate : 192 Kbps
    Channel(s) : 2 channels
    Channel positions : Front: L R
    Sampling rate : 48.0 KHz
    Bit depth : 16 bits
    Compression mode : Lossy
    Stream size : 115 MiB (16%)
    Alignment : Split accross interleaves
    Interleave, duration : 40 ms (1.00 video frame)
    Interleave, preload duration : 500 ms

    Скриншот c названием фильма

    Скриншоты





    Скачать .torrent

    Скачать торрент-файл бесплатно и на максимальной скорости!

    Как скачивать? · Что такое торрент? · Рейтинг и ограничения

    !ВНИМАНИЕ!
    Сайт не распространяет и не хранит электронные версии произведений, а занимается лишь лишь предоставлением доступа к создаваемому пользователями каталогу ссылок на торрент-файлы, которые содержат только списки хеш-сумм, убедительная просьба с жалобами обращаться напрямую к пользователю. Файлы для обмена на трекере предоставлены пользователями сайта, и администрация не несёт ответственности за их содержание. Просьба не заливать файлы, защищенные авторскими правами, а также файлы нелегального содержания!


    _________________
    [Профиль] [ЛС]
    Показать сообщения:    
    Ответить на тему

    Текущее время: Сегодня, в 07:13

    Часовой пояс: GMT + 2



    Вы не можете начинать темы
    Вы не можете отвечать на сообщения
    Вы не можете редактировать свои сообщения
    Вы не можете удалять свои сообщения
    Вы не можете голосовать в опросах
    Вы не можете прикреплять файлы к сообщениям
    Вы не можете скачивать файлы