BitTorrentTracker PerecTracker.org
BitTorrentTracker PerecTracker.org
    
Регистрация  ·  Вход
 
 · 
Забыли пароль?

  • Арнольд! / Hey Arnold! The Movie (Так Такер / Tuck Tucker) [2002, мультфильм, комедия, приключения, семейный, WEB-DLRip] 2 DUB + MVO

    Ответить на тему
     
    Автор Сообщение

    rechyn

    Создавать темы 07-Июн-2015 22:06

           

    [Цитировать]

    Арнольд!
    Hey Arnold! The Movie
    «A Big Problem Calls For A Big Head»Страна: США
    Жанр: мультфильм, комедия, приключения, семейный
    Продолжительность: 01:15:46
    Год выпуска: 2002-Перевод: Профессиональный (Дублированный) CTC
    Перевод: Профессиональный (Дублированный) THT
    Перевод: Профессиональный (Многоголосый закадровый) Премьер Видео
    Русские субтитры: нет
    Режиссёр: Так Такер / Tuck Tucker-Роли озвучивали: Спенсер Клейн, Франческа Смит, Дэн Кастелланета, Тресс МакНилл, Пол Сорвино, Дженнифер Джейсон Ли, Кристофер Ллойд, Винсент Скьявелли, Морис ЛаМарш, Кэт Сауси
    Роли дублировали: Ирина Гришина, Андрей Бархударов, Вячеслав Баранов, Дмитрий Филимонов, Александр Рыжков-Описание: У безжалостного магната родился злодейский план: снести родной квартал Арнольда и выстроить на его месте огромный супермаркет. Время пошло, и кто-то должен встать на защиту уютного уголка. И этим кем-то станет… Арнольд.
    С хвостатой занудой Хельгой, тайно влюбленной в него, и с лучшим другом Джеральдом Арнольд устраивает забастовку, чтобы вернуть слову «прогресс» его истинное значение — находить новое очарование в старом добром квартале, который он называет своим «домом».-Релиз:
    | | -- Большое спасибо Lexa1988-L1 за все дороги!
    - Большое спасибо -Azureus- за покупку, работу с WEB-DL и звуком !-Качество: WEB-DLRip
    Формат: AVI
    Видео: 688x384 (1.79:1), 23,976 fps, XviD 66 ~1 241 kbps avg, 0.20 bit/pixel
    Аудио: 48.0 kHz, MPEG Layer 3, 2/0 (L,R) ch, ~128 kbps |CTC|
    Аудио: 48.0 kHz, MPEG Layer 3, 2/0 (L,R) ch, ~128 kbps |THT| отдельно
    Аудио: 48.0 kHz, MPEG Layer 3, 2/0 (L,R) ch, ~128 kbps |MVO| отдельно
    Субтитры: отсутствуют

    MI


    General
    Complete name : D:\incarcare\rip gata\Арнольд.2002.WEB-DLRip.746[dragomire]_perectracker.org\Арнольд.2002.WEB-DLRip[dragomire]_perectracker.org.avi
    Format : AVI
    Format/Info : Audio Video Interleave
    File size : 747 MiB
    Duration : 1h 15mn
    Overall bit rate : 1 378 Kbps
    Writing application : VirtualDubMod 1.5.10.2 (build 2540/release)
    Writing library : VirtualDubMod build 2540/release
    Video
    ID : 0
    Format : MPEG-4 Visual
    Format profile : Advanced Simple@L5
    Format settings, BVOP : 1
    Format settings, QPel : No
    Format settings, GMC : No warppoints
    Format settings, Matrix : Custom
    Codec ID : XVID
    Codec ID/Hint : XviD
    Duration : 1h 15mn
    Bit rate : 1 241 Kbps
    Width : 688 pixels
    Height : 384 pixels
    Display aspect ratio : 16:9
    Frame rate : 23.976 fps
    Color space : YUV
    Chroma subsampling : 4:2:0
    Bit depth : 8 bits
    Scan type : Progressive
    Compression mode : Lossy
    Bits/(Pixel*Frame) : 0.196
    Stream size : 672 MiB (90%)
    Writing library : XviD 66
    Audio
    ID : 1
    Format : MPEG Audio
    Format version : Version 1
    Format profile : Layer 3
    Codec ID : 55
    Codec ID/Hint : MP3
    Duration : 1h 15mn
    Bit rate mode : Constant
    Bit rate : 128 Kbps
    Channel(s) : 2 channels
    Sampling rate : 48.0 KHz
    Compression mode : Lossy
    Stream size : 69.4 MiB (9%)
    Alignment : Aligned on interleaves
    Interleave, duration : 42 ms (1.00 video frame)
    Interleave, preload duratio : 504 ms

    Скриншоты

    Скачать .torrent

    Скачать торрент-файл бесплатно и на максимальной скорости!

    Как скачивать? · Что такое торрент? · Рейтинг и ограничения

    !ВНИМАНИЕ!
    Сайт не распространяет и не хранит электронные версии произведений, а занимается лишь лишь предоставлением доступа к создаваемому пользователями каталогу ссылок на торрент-файлы, которые содержат только списки хеш-сумм, убедительная просьба с жалобами обращаться напрямую к пользователю. Файлы для обмена на трекере предоставлены пользователями сайта, и администрация не несёт ответственности за их содержание. Просьба не заливать файлы, защищенные авторскими правами, а также файлы нелегального содержания!


    _________________
    [Профиль] [ЛС]
    Показать сообщения:    
    Ответить на тему

    Текущее время: Сегодня, в 02:58

    Часовой пояс: GMT + 2



    Вы не можете начинать темы
    Вы не можете отвечать на сообщения
    Вы не можете редактировать свои сообщения
    Вы не можете удалять свои сообщения
    Вы не можете голосовать в опросах
    Вы не можете прикреплять файлы к сообщениям
    Вы не можете скачивать файлы