BitTorrentTracker PerecTracker.org
BitTorrentTracker PerecTracker.org
    
Регистрация  ·  Вход
 
 · 
Забыли пароль?

  • Робот по имени Чаппи / Chappie (Нил Бломкамп / Neill Blomkamp ) [2015, США, Мексика, ЮАР, Фантастика, боевик, триллер, BDRip, HD (720p)] DUB + Original + sub (rus, eng, ukr)

    Ответить на тему
     
    Автор Сообщение

    rechyn

    Создавать темы 07-Июн-2015 17:54

           

    [Цитировать]

    Робот по имени Чаппи / Chappie
    «I am discovery. I am wonder. I am chappie»
    7.384 / 10 7.10 / 10
    -Год выпуска: 2015
    Страна: США, Мексика, ЮАР
    Жанр: Фантастика, боевик, триллер
    Продолжительность: 02:00:19
    Перевод: Дублированный (Blu-ray CEE)
    Оригинальная аудиодорожка: Есть
    Cубтитры: Русские форсированные, Русские, Английские, Украинские
    Режиссёр: Нил Бломкамп
    Сценарий: Нил Бломкамп, Тэрри Татчелл
    Продюсер: Нил Бломкамп, Саймон Кинберг, Джеймс Битонти
    Оператор: Трент Опалок
    Композитор: Ханс Циммер
    Художник: Жуль Кук, Бобби Кардосо, Эмилия Ру
    Монтаж: Джулиан Кларк, Марк Голдблатт
    В ролях: Шарлто Копли, Дев Патель, Ниндзя, Йоланди Фиссер, Хосе Пабло Кантильо, Хью Джекман, Сигурни Уивер, Брэндон Оре, Джонни Селема, Андерсон Купер
    Бюджет: $49 000 000
    Сборы в США: $31 569 268
    Сборы в мире: + $70 500 000 = $102 069 268
    Сборы в России: $7 146 696
    Мировая премьера: 4 марта 2015
    Премьера (РФ): 5 марта 2015, «WDSSPR»
    Релиз на DVD: 11 июня 2015, «CP Дистрибуция»
    Релиз на Blu-Ray: 11 июня 2015, «CP Дистрибуция»
    Описание: Чаппи — вундеркинд. Как и любой другой ребенок, он попадает под влияние своего окружения, и только его сердце и душа помогут ему найти свой путь. Но есть одна вещь, которая делает Чаппи непохожим на всех остальных: он — первый робот, способный чувствовать и думать.-Качество исходника: BDRemux (HDClub)
    Качество: BDRip
    Тип: HD (720p)
    Контейнер: M4V
    Видео: H.264, 1280x536, 2.40:1, 4 000 Kbps, 23.976 fps
    Аудио 1: Русский/Дублированный (Blu-ray CEE), AAC / 2.0 / 159 Kbps / 48.0 KHz
    Аудио 2: Английский/Оригинальная дорожка , AAC / 2.0 / 159 Kbps / 48.0 KHz
    Аудио 3: Украинский/Дублированный (Blu-ray CEE), AAC / 2.0 / 158 Kbps / 48.0 KHz
    Аудио 4: Русский/Дублированный (Blu-ray CEE), AC-3 / 5.1 / 640 Kbps / 48.0 KHz
    Аудио 5: Английский/Оригинальная дорожка , AC-3 / 5.1 / 640 Kbps / 48.0 KHz
    Аудио 6: Украинский/Дублированный (Blu-ray CEE), AC-3 / 5.1 / 640 Kbps / 48.0 KHz
    Субтитры 1: Русские форсированные
    Субтитры 2: Русские полные
    Субтитры 3: Английские полные
    Субтитры 4: Украинские полные
    -

    iTunes Meta Tags

    Sort Name: Chappie
    XID: Apple:vendor_id:2015-591485
    contentID: 968594526
    Screenwriters: Нил Бломкамп, Тэрри Татчелл
    Producers: Нил Бломкамп, Саймон Кинберг, Джеймс Битонти
    Director: Нил Бломкамп
    Cast: Шарлто Копли, Дев Патель, Ниндзя, Йоланди Фиссер, Хосе Пабло Кантильо, Хью Джекман, Сигурни Уивер, Брэндон Оре, Джонни Селема, Андерсон Купер
    Studio: Alpha Core
    Rating Annotation: Rated R for violence, language and brief nudity.
    Rating: 11
    Long Description: Чаппи - вундеркинд. Как и любой другой ребенок, он попадает под влияние своего окружения, и только его сердце и душа помогут ему найти свой путь. Но есть одна вещь, которая делает Чаппи непохожим на всех остальных: он - первый робот, способный чувствовать и думать.
    Description: Чаппи - вундеркинд. Как и любой другой ребенок, он попадает под влияние своего окружения, и только его сердце и душа помогут ему найти свой путь. Но есть одна вещь, которая делает Чаппи непохожим на всех остальных: он - первый робот, способный чувствовать и думать.
    Release Date: 2015-03-04T08:00:00Z
    Genre: Action & Adventure
    Artist: Neill Blomkamp
    Name: Chappie

    MediaInfo

    General
    Complete name                            : /Users/imac/HandBrake/Chappie (720p HD).m4v
    Format                                   : MPEG-4
    Codec ID                                 : M4V
    File size                                : 5.37 GiB
    Duration                                 : 2h 0mn
    Overall bit rate mode                    : Variable
    Overall bit rate                         : 6 390 Kbps
    Movie name                               : Chappie
    Performer                                : Neill Blomkamp
    Genre                                    : Action & Adventure
    Recorded date                            : UTC 2015-03-04 08:00:00
    Encoded date                             : UTC 2015-06-07 10:37:40
    Tagged date                              : UTC 2015-06-07 10:41:10
    Cover                                    : Yes
    sonm                                     : Chappie
    desc                                     : Чаппи - вундеркинд. Как и любой другой ребенок, он попадает под влияние своего окружения, и только его сердце и душа помогут ему найти свой путь. Но есть одна вещь, которая делает Чаппи непохожим на всех остальных: он - первый робот, способный чувствовать и думать.
    ldes                                     : Чаппи - вундеркинд. Как и любой другой ребенок, он попадает под влияние своего окружения, и только его сердце и душа помогут ему найти свой путь. Но есть одна вещь, которая делает Чаппи непохожим на всех остальных: он - первый робот, способный чувствовать и думать.
    hdvd                                     : 1
    stik                                     : 9
    rtng                                     : 0
    cnID                                     : 968594526
    xid                                      : Apple:vendor_id:2015-591485
    iTunEXTC                                 : mpaa|R|400|Rated R for violence, language and brief nudity.
    iTunMOVI                                 : <?xml version=\"1.0\" encoding=\"UTF-8\"?> / <!DOCTYPE plist PUBLIC \"-//Apple//DTD PLIST 1.0//EN\" \"http://anonym.to/?http://www.apple.com/DTDs/PropertyList-1.0.dtd\"> / <plist version=\"1.0\"> / <dict> /  <key>cast</key> /  <array> /   <dict> /    <key>name</key> /    <string>Шарлто Копли</string> /   </dict> /   <dict> /    <key>name</key> /    <string>Дев Патель</string> /   </dict> /   <dict> /    <key>name</key> /    <string>Ниндзя</string> /   </dict> /   <dict> /    <key>name</key> /    <string>Йоланди Фиссер</string> /   </dict> /   <dict> /    <key>name</key> /    <string>Хосе Пабло Кантильо</string> /   </dict> /   <dict> /    <key>name</key> /    <string>Хью Джекман</string> /   </dict> /   <dict> /    <key>name</key> /    <string>Сигурни Уивер</string> /   </dict> /   <dict> /    <key>name</key> /    <string>Брэндон Оре</string> /   </dict> /   <dict> /    <key>name</key> /    <string>Джонни Селема</string> /   </dict> /   <dict> /    <key>name</key> /    <string>Андерсон Купер</string> /   </dict> /  </array> /  <key>directors</key> /  <array> /   <dict> /    <key>name</key> /    <string>Нил Бломкамп</string> /   </dict> /  </array> /  <key>producers</key> /  <array> /   <dict> /    <key>name</key> /    <string>Нил Бломкамп</string> /   </dict> /   <dict> /    <key>name</key> /    <string>Саймон Кинберг</string> /   </dict> /   <dict> /    <key>name</key> /    <string>Джеймс Битонти</string> /   </dict> /  </array> /  <key>screenwriters</key> /  <array> /   <dict> /    <key>name</key> /    <string>Нил Бломкамп</string> /   </dict> /   <dict> /    <key>name</key> /    <string>Тэрри Татчелл</string> /   </dict> /  </array> /  <key>studio</key> /  <string>Alpha Core</string> / </dict> / </plist>
    Video #1
    ID                                       : 2
    Format                                   : AVC
    Format/Info                              : Advanced Video Codec
    Format profile                           : High@L3.1
    Format settings, CABAC                   : No
    Format settings, ReFrames                : 3 frames
    Codec ID                                 : avc1
    Codec ID/Info                            : Advanced Video Coding
    Duration                                 : 2h 0mn
    Bit rate mode                            : Variable
    Bit rate                                 : 4 000 Kbps
    Width                                    : 1 280 pixels
    Height                                   : 536 pixels
    Display aspect ratio                     : 2.40:1
    Frame rate mode                          : Variable
    Frame rate                               : 23.976 fps
    Minimum frame rate                       : 23.974 fps
    Maximum frame rate                       : 23.981 fps
    Color space                              : YUV
    Chroma subsampling                       : 4:2:0
    Bit depth                                : 8 bits
    Scan type                                : Progressive
    Bits/(Pixel*Frame)                       : 0.243
    Stream size                              : 3.35 GiB (62%)
    Writing library                          : x264 core 142 r2479 dd79a61
    Encoding settings                        : cabac=0 / ref=3 / deblock=1:-3:-3 / analyse=0x3:0x113 / me=umh / subme=9 / psy=1 / psy_rd=1.00:0.15 / mixed_ref=1 / me_range=32 / chroma_me=1 / trellis=0 / 8x8dct=1 / cqm=0 / deadzone=21,11 / fast_pskip=0 / chroma_qp_offset=-2 / threads=36 / lookahead_threads=3 / sliced_threads=0 / nr=0 / decimate=0 / interlaced=0 / bluray_compat=0 / constrained_intra=0 / bframes=3 / b_pyramid=0 / b_adapt=2 / b_bias=0 / direct=1 / weightb=0 / open_gop=0 / weightp=0 / keyint=240 / keyint_min=24 / scenecut=40 / intra_refresh=0 / rc_lookahead=40 / rc=2pass / mbtree=1 / bitrate=4000 / ratetol=1.0 / qcomp=0.65 / qpmin=0 / qpmax=69 / qpstep=4 / cplxblur=20.0 / qblur=0.5 / vbv_maxrate=9500 / vbv_bufsize=9500 / nal_hrd=none / filler=0 / ip_ratio=1.40 / aq=1:1.10
    Language                                 : English
    Encoded date                             : UTC 2015-06-07 10:37:41
    Tagged date                              : UTC 2015-06-07 10:37:50
    Color primaries                          : BT.709-5, BT.1361, IEC 61966-2-4, SMPTE RP177
    Transfer characteristics                 : BT.709-5, BT.1361
    Matrix coefficients                      : BT.709-5, BT.1361, IEC 61966-2-4 709, SMPTE RP177
    Video #2
    ID                                       : 13
    Format                                   : JPEG
    Codec ID                                 : jpeg
    Duration                                 : 2h 0mn
    Bit rate mode                            : Variable
    Bit rate                                 : 698 bps
    Width                                    : 640 pixels
    Height                                   : 268 pixels
    Display aspect ratio                     : 2.40:1
    Frame rate mode                          : Variable
    Frame rate                               : 0.002 fps
    Minimum frame rate                       : 0.001 fps
    Maximum frame rate                       : 0.005 fps
    Compression mode                         : Lossy
    Bits/(Pixel*Frame)                       : 2.035
    Stream size                              : 682 KiB (0%)
    Language                                 : English
    Encoded date                             : UTC 2015-06-07 10:38:48
    Tagged date                              : UTC 2015-06-07 10:38:49
    Audio #1
    ID                                       : 1
    Format                                   : AAC
    Format/Info                              : Advanced Audio Codec
    Format profile                           : LC
    Codec ID                                 : 40
    Duration                                 : 2h 0mn
    Bit rate mode                            : Variable
    Bit rate                                 : 159 Kbps
    Maximum bit rate                         : 231 Kbps
    Channel(s)                               : 2 channels
    Channel positions                        : Front: L R
    Sampling rate                            : 48.0 KHz
    Compression mode                         : Lossy
    Stream size                              : 137 MiB (2%)
    Language                                 : Russian
    Encoded date                             : UTC 2015-06-07 10:37:40
    Tagged date                              : UTC 2015-06-07 10:37:51
    Audio #2
    ID                                       : 3
    Format                                   : AAC
    Format/Info                              : Advanced Audio Codec
    Format profile                           : LC
    Codec ID                                 : 40
    Duration                                 : 2h 0mn
    Bit rate mode                            : Variable
    Bit rate                                 : 159 Kbps
    Maximum bit rate                         : 242 Kbps
    Channel(s)                               : 2 channels
    Channel positions                        : Front: L R
    Sampling rate                            : 48.0 KHz
    Compression mode                         : Lossy
    Stream size                              : 137 MiB (2%)
    Language                                 : English
    Encoded date                             : UTC 2015-06-07 10:38:36
    Tagged date                              : UTC 2015-06-07 10:38:45
    Audio #3
    ID                                       : 4
    Format                                   : AAC
    Format/Info                              : Advanced Audio Codec
    Format profile                           : LC
    Codec ID                                 : 40
    Duration                                 : 2h 0mn
    Bit rate mode                            : Variable
    Bit rate                                 : 158 Kbps
    Maximum bit rate                         : 236 Kbps
    Channel(s)                               : 2 channels
    Channel positions                        : Front: L R
    Sampling rate                            : 48.0 KHz
    Compression mode                         : Lossy
    Stream size                              : 136 MiB (2%)
    Language                                 : Ukrainian
    Encoded date                             : UTC 2015-06-07 10:38:36
    Tagged date                              : UTC 2015-06-07 10:38:45
    Audio #4
    ID                                       : 5
    Format                                   : AC-3
    Format/Info                              : Audio Coding 3
    Mode extension                           : CM (complete main)
    Format settings, Endianness              : Big
    Codec ID                                 : ac-3
    Duration                                 : 2h 0mn
    Bit rate mode                            : Constant
    Bit rate                                 : 640 Kbps
    Channel(s)                               : 6 channels
    Channel positions                        : Front: L C R, Side: L R, LFE
    Sampling rate                            : 48.0 KHz
    Bit depth                                : 16 bits
    Compression mode                         : Lossy
    Stream size                              : 551 MiB (10%)
    Language                                 : Russian
    Encoded date                             : UTC 2015-06-07 10:38:36
    Tagged date                              : UTC 2015-06-07 10:38:45
    Audio #5
    ID                                       : 6
    Format                                   : AC-3
    Format/Info                              : Audio Coding 3
    Mode extension                           : CM (complete main)
    Format settings, Endianness              : Big
    Codec ID                                 : ac-3
    Duration                                 : 2h 0mn
    Bit rate mode                            : Constant
    Bit rate                                 : 640 Kbps
    Channel(s)                               : 6 channels
    Channel positions                        : Front: L C R, Side: L R, LFE
    Sampling rate                            : 48.0 KHz
    Bit depth                                : 16 bits
    Compression mode                         : Lossy
    Stream size                              : 551 MiB (10%)
    Language                                 : English
    Encoded date                             : UTC 2015-06-07 10:38:36
    Tagged date                              : UTC 2015-06-07 10:38:45
    Audio #6
    ID                                       : 7
    Format                                   : AC-3
    Format/Info                              : Audio Coding 3
    Mode extension                           : CM (complete main)
    Format settings, Endianness              : Big
    Codec ID                                 : ac-3
    Duration                                 : 2h 0mn
    Bit rate mode                            : Constant
    Bit rate                                 : 640 Kbps
    Channel(s)                               : 6 channels
    Channel positions                        : Front: L C R, Side: L R, LFE
    Sampling rate                            : 48.0 KHz
    Bit depth                                : 16 bits
    Compression mode                         : Lossy
    Stream size                              : 551 MiB (10%)
    Language                                 : Ukrainian
    Encoded date                             : UTC 2015-06-07 10:38:36
    Tagged date                              : UTC 2015-06-07 10:38:45
    Text #1
    ID                                       : 8
    Format                                   : Timed text
    Muxing mode                              : sbtl
    Codec ID                                 : tx3g
    Duration                                 : 1h 16mn
    Bit rate mode                            : Variable
    Bit rate                                 : 2 bps
    Stream size                              : 869 Bytes (0%)
    Language                                 : Russian
    Encoded date                             : UTC 2015-06-07 10:38:36
    Tagged date                              : UTC 2015-06-07 10:38:41
    Text #2
    ID                                       : 9
    Format                                   : Timed text
    Muxing mode                              : sbtl
    Codec ID                                 : tx3g
    Duration                                 : 1h 52mn
    Bit rate mode                            : Variable
    Bit rate                                 : 104 bps
    Stream size                              : 86.0 KiB (0%)
    Language                                 : Russian
    Encoded date                             : UTC 2015-06-07 10:38:36
    Tagged date                              : UTC 2015-06-07 10:38:44
    Text #3
    ID                                       : 10
    Format                                   : Timed text
    Muxing mode                              : sbtl
    Codec ID                                 : tx3g
    Duration                                 : 1h 52mn
    Bit rate mode                            : Variable
    Bit rate                                 : 66 bps
    Stream size                              : 54.8 KiB (0%)
    Language                                 : English
    Encoded date                             : UTC 2015-06-07 10:38:36
    Tagged date                              : UTC 2015-06-07 10:38:44
    Text #4
    ID                                       : 11
    Format                                   : Timed text
    Muxing mode                              : sbtl
    Codec ID                                 : tx3g
    Duration                                 : 1h 52mn
    Bit rate mode                            : Variable
    Bit rate                                 : 104 bps
    Stream size                              : 85.7 KiB (0%)
    Language                                 : Ukrainian
    Encoded date                             : UTC 2015-06-07 10:38:36
    Tagged date                              : UTC 2015-06-07 10:38:44
    Text #5
    ID                                       : 12
    Format                                   : Apple text
    Codec ID                                 : text
    Duration                                 : 2h 0mn
    Bit rate mode                            : Variable
    Bit rate                                 : 0 bps
    Stream size                              : 375 Bytes (0%)
    Language                                 : English
    Encoded date                             : UTC 2015-06-07 10:38:45
    Tagged date                              : UTC 2015-06-07 10:38:45
    Menu
    00:00:00.000                             : Chapter 1
    00:03:36.508                             : Chapter 2
    00:09:54.636                             : Chapter 3
    00:13:49.746                             : Chapter 4
    00:21:52.895                             : Chapter 5
    00:31:17.459                             : Chapter 6
    00:37:18.820                             : Chapter 7
    00:46:58.691                             : Chapter 8
    00:54:36.607                             : Chapter 9
    01:06:12.510                             : Chapter 10
    01:09:57.568                             : Chapter 11
    01:16:48.229                             : Chapter 12
    01:24:59.136                             : Chapter 13
    01:31:35.156                             : Chapter 14
    01:42:36.817                             : Chapter 15
    01:50:03.388                             : Chapter 16

    x264 лог

    x264 [info]: frame I:2067  Avg QP:15.43  size:110671
    x264 [info]: frame P:73712 Avg QP:17.58  size: 34199
    x264 [info]: frame B:97308 Avg QP:20.06  size:  8683
    x264 [info]: consecutive B-frames:  7.7% 46.8% 15.7% 29.8%
    x264 [info]: mb I  I16..4:  7.5% 52.4% 40.1%
    x264 [info]: mb P  I16..4:  1.8%  5.8%  3.3%  P16..4: 44.5% 26.2% 11.0%  0.0%  0.0%    skip: 7.4%
    x264 [info]: mb B  I16..4:  0.2%  0.8%  0.5%  B16..8: 43.2% 11.3%  1.9%  direct: 4.2%  skip:38.0%  L0:37.5% L1:51.8% BI:10.7%
    x264 [info]: 8x8 transform intra:53.2% inter:44.0%
    x264 [info]: coded y,uvDC,uvAC intra: 82.2% 84.6% 66.9% inter: 26.1% 29.0% 20.1%
    x264 [info]: i16 v,h,dc,p: 39% 23%  6% 33%
    x264 [info]: i8 v,h,dc,ddl,ddr,vr,hd,vl,hu: 13% 10%  6% 10% 13% 13% 13% 11% 11%
    x264 [info]: i4 v,h,dc,ddl,ddr,vr,hd,vl,hu: 13% 12%  4% 10% 15% 14% 13% 10%  9%
    x264 [info]: i8c dc,h,v,p: 49% 19% 20% 12%
    x264 [info]: ref P L0: 77.1% 13.8%  9.1%
    x264 [info]: ref B L0: 84.7% 15.3%
    x264 [info]: kb/s:3983.32

    Скриншоты

    -

    Релиз подготовлен для просмотра на Apple TV, iPad, iPhone, iPod Touch.
    Для просмотра данного релиза на компьютере с ОС Windows рекомендуется использовать VLC media player
    Скачать .torrent

    Скачать торрент-файл бесплатно и на максимальной скорости!

    Как скачивать? · Что такое торрент? · Рейтинг и ограничения

    !ВНИМАНИЕ!
    Сайт не распространяет и не хранит электронные версии произведений, а занимается лишь лишь предоставлением доступа к создаваемому пользователями каталогу ссылок на торрент-файлы, которые содержат только списки хеш-сумм, убедительная просьба с жалобами обращаться напрямую к пользователю. Файлы для обмена на трекере предоставлены пользователями сайта, и администрация не несёт ответственности за их содержание. Просьба не заливать файлы, защищенные авторскими правами, а также файлы нелегального содержания!


    _________________
    [Профиль] [ЛС]
    Показать сообщения:    
    Ответить на тему

    Текущее время: Сегодня, в 22:24

    Часовой пояс: GMT + 2



    Вы не можете начинать темы
    Вы не можете отвечать на сообщения
    Вы не можете редактировать свои сообщения
    Вы не можете удалять свои сообщения
    Вы не можете голосовать в опросах
    Вы не можете прикреплять файлы к сообщениям
    Вы не можете скачивать файлы